Remember Me
A password will be e-mailed to you.
Please enter your username or email address. You will receive a link to create a new password via email.
Cancel
PerfectHDMovies.me

Central Intelligence 2016 HC HDRip XviD AC3-VAiN – 1.38 GB

Central Intelligence    

PG-13 114 min HollywoodHollywood HDRip

7.0
IMDB: 7.0/10 4,663 votes

, , ,

N/A

USA

Report error

http://extraimago.com/images/2016/07/15/gVIKTASI.jpg

 

Central Intelligence 2016 HC HDRip XviD AC3-VAiN

iMDB........: http://www.imdb.com/title/tt1489889/
 
 
 
 T E C H N i C A L . i N F O . . .
 
 Basic Information
 Format                      : AVI
 Format/Info                 : Audio Video Interleave
 File size                   : 1.38 GiB
 Duration                    : 1h 51mn
 Overall bit rate            : 1 765 Kbps
 Writing application         : VirtualDubMod 1.5.10.2 (build 2542/release)
 Writing library             : VirtualDub build 32593/release
 
 Video
 ID                          : 0
 Format                      : MPEG-4 Visual
 Format profile              : Advanced [email protected]
 Format settings, BVOP       : 2
 Format settings, QPel       : No
 Format settings, GMC        : No warppoints
 Format settings, Matrix     : Default (H.263)
 Muxing mode                 : Packed bitstream
 Codec ID                    : XVID
 Codec ID/Hint               : XviD
 Duration                    : 1h 51mn
 Bit rate                    : 1 564 Kbps
 Width                       : 720 pixels
 Height                      : 304 pixels
 Display aspect ratio        : 2.35:1
 Frame rate                  : 23.976 (23976/1000) fps
 Color space                 : YUV
 Chroma subsampling          : 4:2:0
 Bit depth                   : 8 bits
 Scan type                   : Progressive
 Compression mode            : Lossy
 Bits/(Pixel*Frame)          : 0.298
 Stream size                 : 1.22 GiB (89%)
 Writing library             : XviD 66
 
 Audio
 ID                          : 1
 Format                      : AC-3
 Format/Info                 : Audio Coding 3
 Mode extension              : CM (complete main)
 Format settings, Endianness : Big
 Codec ID                    : 2000
 Duration                    : 1h 51mn
 Bit rate mode               : Constant
 Bit rate                    : 192 Kbps
 Channel(s)                  : 2 channels
 Channel positions           : Front: L R
 Sampling rate               : 48.0 KHz
 Frame rate                  : 31.250 fps (1536 spf)
 Compression mode            : Lossy
 Stream size                 : 153 MiB (11%)
 Alignment                   : Split accross interleaves
 Interleave, duration        : 42 ms (1.00 video frame)
 Interleave, preload duratio : 500 ms






Click To Resize
Click To Resize
Click To Resize
Click To Resize
Click To Resize
Click To Resize


Sample



*
VODLOCKER
*



No links available
No downloads available

Genres

Related movies

Watch Dragon ball super