Category Archives: English Shows

Heroes (2006) Season 01 Episode 23 S01E23 1080p x264 BluRay [Dual Audio] [Hindi Org DD 2.0 – Eng] – monu987 940 MiB

Heroes (2006) Season 01 Episode 23 S01E23 1080p x264 BluRay [Dual Audio] [Hindi Org DD 2.0 - Eng] - monu987

Heroes (2006) Season 01 Episode 23 S01E23 1080p x264 BluRay [Dual Audio] [Hindi Org DD 2.0 – Eng] – monu987

Heroes (2006) Season 01 Episode 23 S01E23 1080p x264 BluRay [Dual Audio] [Hindi Org DD 2.0 - Eng] - monu987
Format version : Version 4 / Version 2
File size : 940 MiB
Duration : 44mn 53s
Overall bit rate : 2 929 Kbps
Movie name : Heroes (2006) Season 01 Episode 23 S01E23 1080p - monu987
Encoded date : UTC 2016-09-08 19:54:20
Writing application : mkvmerge v7.9.0 ('Birds') 64bit
Writing library : libebml v1.3.1 + libmatroska v1.4.2
DURATION : 00:44:53.312000000
NUMBER_OF_FRAMES : 84166
NUMBER_OF_BYTES : 64639488
_STATISTICS_WRITING_APP : mkvmerge v7.9.0 ('Birds') 64bit
_STATISTICS_WRITING_DATE_UTC : 2016-09-08 19:54:20
_STATISTICS_TAGS : BPS DURATION NUMBER_OF_FRAMES NUMBER_OF_BYTES

Video
ID : 1
Format : AVC
Format/Info : Advanced Video Codec
Format profile : [email protected]
Format settings, CABAC : Yes
Format settings, ReFrames : 3 frames
Codec ID : V_MPEG4/ISO/AVC
Duration : 44mn 53s
Bit rate : 2 500 Kbps
Width : 1 920 pixels
Height : 1 072 pixels
Display aspect ratio : 16:9
Frame rate mode : Constant
Frame rate : 23.976 fps
Color space : YUV
Chroma subsampling : 4:2:0
Bit depth : 8 bits
Scan type : Progressive
Bits/(Pixel*Frame) : 0.051
Stream size : 788 MiB (84%)
Title : monu987
Writing library : x264 core 142 r2431 ac76440
Default : Yes
Forced : Yes
Color range : Limited
Color primaries : Generic film
Transfer characteristics : BT.709
Matrix coefficients : BT.709
DURATION : 00:44:53.316000000
NUMBER_OF_FRAMES : 64575
NUMBER_OF_BYTES : 842009510
_STATISTICS_WRITING_APP : mkvmerge v7.9.0 ('Birds') 64bit
_STATISTICS_WRITING_DATE_UTC : 2016-09-08 19:54:20
_STATISTICS_TAGS : BPS DURATION NUMBER_OF_FRAMES NUMBER_OF_BYTES

Audio #1
ID : 2
Format : AC-3
Format/Info : Audio Coding 3
Mode extension : CM (complete main)
Format settings, Endianness : Big
Codec ID : A_AC3
Duration : 44mn 53s
Bit rate mode : Constant
Bit rate : 224 Kbps
Channel(s) : 2 channels
Channel positions : Front: L R
Sampling rate : 48.0 KHz
Compression mode : Lossy
Stream size : 71.9 MiB (8%)
Title : monu987
Language : Hindi
Default : Yes
Forced : Yes

Audio #2
ID : 3
Format : AC-3
Format/Info : Audio Coding 3
Mode extension : CM (complete main)
Format settings, Endianness : Big
Codec ID : A_AC3
Duration : 44mn 53s
Bit rate mode : Constant
Bit rate : 192 Kbps
Channel(s) : 6 channels
Channel positions : Front: L C R, Side: L R, LFE
Sampling rate : 48.0 KHz
Compression mode : Lossy
Stream size : 61.6 MiB (7%)
Title : monu987
Language : English
Default : No
Forced : No
DURATION : 00:43:31.985000000
NUMBER_OF_FRAMES : 1128
NUMBER_OF_BYTES : 3337226
_STATISTICS_WRITING_APP : mkvmerge v7.9.0 ('Birds') 64bit
_STATISTICS_WRITING_DATE_UTC : 2016-09-08 19:54:20
_STATISTICS_TAGS : BPS DURATION NUMBER_OF_FRAMES NUMBER_OF_BYTES

 
Heroes (2006) Season 01 Episode 23 S01E23 1080p x264 BluRay [Dual Audio] [Hindi Org DD 2.0 - Eng] - monu987 Heroes (2006) Season 01 Episode 23 S01E23 1080p x264 BluRay [Dual Audio] [Hindi Org DD 2.0 - Eng] - monu987Heroes (2006) Season 01 Episode 23 S01E23 1080p x264 BluRay [Dual Audio] [Hindi Org DD 2.0 - Eng] - monu987
LETWATACH
*
*
*
*
*
*
*
GO4UP

	

Heroes (2006) Season 01 Episode 23 S01E23 720p x264 BluRay [Dual Audio] [Hindi Org DD 2.0 – Eng] – monu987 539 MiB

Heroes (2006) Season 01 Episode 23 S01E23 720p x264 BluRay [Dual Audio] [Hindi Org DD 2.0 - Eng] - monu987

Heroes (2006) Season 01 Episode 23 S01E23 720p x264 BluRay [Dual Audio] [Hindi Org DD 2.0 – Eng] – monu987

Heroes (2006) Season 01 Episode 23 S01E23 720p x264 BluRay [Dual Audio] [Hindi Org DD 2.0 - Eng] - monu987
Format : Matroska
Format version : Version 4 / Version 2
File size : 539 MiB
Duration : 44mn 53s
Overall bit rate : 1 678 Kbps
Movie name : Heroes (2006) Season 01 Episode 23 S01E23 720p - monu987
Encoded date : UTC 2016-09-08 19:13:24
Writing application : mkvmerge v7.9.0 ('Birds') 64bit
Writing library : libebml v1.3.1 + libmatroska v1.4.2
DURATION : 00:44:53.312000000
NUMBER_OF_FRAMES : 84166
NUMBER_OF_BYTES : 64639488
_STATISTICS_WRITING_APP : mkvmerge v7.9.0 ('Birds') 64bit
_STATISTICS_WRITING_DATE_UTC : 2016-09-08 19:13:24
_STATISTICS_TAGS : BPS DURATION NUMBER_OF_FRAMES NUMBER_OF_BYTES

Video
ID : 1
Format : AVC
Format/Info : Advanced Video Codec
Format profile : [email protected]
Format settings, CABAC : Yes
Format settings, ReFrames : 3 frames
Codec ID : V_MPEG4/ISO/AVC
Duration : 44mn 53s
Bit rate : 1 250 Kbps
Width : 1 280 pixels
Height : 712 pixels
Display aspect ratio : 16:9
Frame rate mode : Constant
Frame rate : 23.976 fps
Color space : YUV
Chroma subsampling : 4:2:0
Bit depth : 8 bits
Scan type : Progressive
Bits/(Pixel*Frame) : 0.057
Stream size : 395 MiB (73%)
Title : monu987
Writing library : x264 core 142 r2431 ac76440
Default : Yes
Forced : Yes
Color range : Limited
Color primaries : Generic film
Transfer characteristics : BT.709
Matrix coefficients : BT.709
DURATION : 00:44:53.316000000
NUMBER_OF_FRAMES : 64575
NUMBER_OF_BYTES : 420977521
_STATISTICS_WRITING_APP : mkvmerge v7.9.0 ('Birds') 64bit
_STATISTICS_WRITING_DATE_UTC : 2016-09-08 19:13:24
_STATISTICS_TAGS : BPS DURATION NUMBER_OF_FRAMES NUMBER_OF_BYTES

Audio #1
ID : 2
Format : AC-3
Format/Info : Audio Coding 3
Mode extension : CM (complete main)
Format settings, Endianness : Big
Codec ID : A_AC3
Duration : 44mn 53s
Bit rate mode : Constant
Bit rate : 224 Kbps
Channel(s) : 2 channels
Channel positions : Front: L R
Sampling rate : 48.0 KHz
Compression mode : Lossy
Stream size : 71.9 MiB (13%)
Title : monu987
Language : Hindi
Default : Yes
Forced : Yes

Audio #2
ID : 3
Format : AC-3
Format/Info : Audio Coding 3
Mode extension : CM (complete main)
Format settings, Endianness : Big
Codec ID : A_AC3
Duration : 44mn 53s
Bit rate mode : Constant
Bit rate : 192 Kbps
Channel(s) : 6 channels
Channel positions : Front: L C R, Side: L R, LFE
Sampling rate : 48.0 KHz
Compression mode : Lossy
Stream size : 61.6 MiB (11%)
Title : monu987
Language : English
Default : No
Forced : No
_STATISTICS_WRITING_APP : mkvmerge v7.9.0 ('Birds') 64bit
_STATISTICS_WRITING_DATE_UTC : 2016-09-08 19:13:24
_STATISTICS_TAGS : BPS DURATION NUMBER_OF_FRAMES NUMBER_OF_BYTES
DURATION : 00:43:31.985000000
NUMBER_OF_FRAMES : 1128
NUMBER_OF_BYTES : 3337226

 
Heroes (2006) Season 01 Episode 23 S01E23 720p x264 BluRay [Dual Audio] [Hindi Org DD 2.0 - Eng] - monu987 Heroes (2006) Season 01 Episode 23 S01E23 720p x264 BluRay [Dual Audio] [Hindi Org DD 2.0 - Eng] - monu987Heroes (2006) Season 01 Episode 23 S01E23 720p x264 BluRay [Dual Audio] [Hindi Org DD 2.0 - Eng] - monu987
LETWATACH
*
*
*
*
*
*
*
GO4UP

	

Heroes (2006) Season 01 Episode 22 S01E22 1080p x264 BluRay [Dual Audio] [Hindi Org DD 2.0 – Eng] – monu987 911 MiB

Heroes (2006) Season 01 Episode 22 S01E22 1080p x264 BluRay [Dual Audio] [Hindi Org DD 2.0 - Eng] - monu987

Heroes (2006) Season 01 Episode 22 S01E22 1080p x264 BluRay [Dual Audio] [Hindi Org DD 2.0 – Eng] – monu987

Heroes (2006) Season 01 Episode 22 S01E22 1080p x264 BluRay [Dual Audio] [Hindi Org DD 2.0 - Eng] - monu987
Format : Matroska
Format version : Version 4 / Version 2
File size : 911 MiB
Duration : 43mn 26s
Overall bit rate : 2 930 Kbps
Movie name : Heroes (2006) Season 01 Episode 22 S01E22 1080p - monu987
Encoded date : UTC 2016-09-08 19:52:08
Writing application : mkvmerge v7.9.0 ('Birds') 64bit
Writing library : Lavf55.12.0
DURATION : 00:43:26.624000000
NUMBER_OF_FRAMES : 81457
NUMBER_OF_BYTES : 62558976
_STATISTICS_WRITING_APP : mkvmerge v7.9.0 ('Birds') 64bit
_STATISTICS_WRITING_DATE_UTC : 2016-09-08 19:52:08
_STATISTICS_TAGS : BPS DURATION NUMBER_OF_FRAMES NUMBER_OF_BYTES

Video
ID : 1
Format : AVC
Format/Info : Advanced Video Codec
Format profile : [email protected]
Format settings, CABAC : Yes
Format settings, ReFrames : 3 frames
Codec ID : V_MPEG4/ISO/AVC
Duration : 43mn 26s
Bit rate : 2 500 Kbps
Width : 1 920 pixels
Height : 1 072 pixels
Display aspect ratio : 16:9
Frame rate mode : Constant
Frame rate : 23.976 fps
Color space : YUV
Chroma subsampling : 4:2:0
Bit depth : 8 bits
Scan type : Progressive
Bits/(Pixel*Frame) : 0.051
Stream size : 763 MiB (84%)
Title : monu987
Writing library : x264 core 142 r2431 ac76440
Default : Yes
Forced : Yes
Color range : Limited
Color primaries : Generic film
Transfer characteristics : BT.709
Matrix coefficients : BT.709
DURATION : 00:43:26.604000000
NUMBER_OF_FRAMES : 62496
NUMBER_OF_BYTES : 814674316
_STATISTICS_WRITING_APP : mkvmerge v7.9.0 ('Birds') 64bit
_STATISTICS_WRITING_DATE_UTC : 2016-09-08 19:52:08
_STATISTICS_TAGS : BPS DURATION NUMBER_OF_FRAMES NUMBER_OF_BYTES

Audio #1
ID : 2
Format : AC-3
Format/Info : Audio Coding 3
Mode extension : CM (complete main)
Format settings, Endianness : Big
Codec ID : A_AC3
Duration : 43mn 26s
Bit rate mode : Constant
Bit rate : 224 Kbps
Channel(s) : 2 channels
Channel positions : Front: L R
Sampling rate : 48.0 KHz
Compression mode : Lossy
Stream size : 69.6 MiB (8%)
Title : monu987
Language : Hindi
Default : Yes
Forced : Yes

Audio #2
ID : 3
Format : AC-3
Format/Info : Audio Coding 3
Mode extension : CM (complete main)
Format settings, Endianness : Big
Codec ID : A_AC3
Duration : 43mn 26s
Bit rate mode : Constant
Bit rate : 192 Kbps
Channel(s) : 6 channels
Channel positions : Front: L C R, Side: L R, LFE
Sampling rate : 48.0 KHz
Compression mode : Lossy
Stream size : 59.7 MiB (7%)
Title : monu987
Language : English
Default : No
Forced : No
DURATION : 00:42:40.558000000
NUMBER_OF_FRAMES : 1270
NUMBER_OF_BYTES : 3912583
_STATISTICS_WRITING_APP : mkvmerge v7.9.0 ('Birds') 64bit
_STATISTICS_WRITING_DATE_UTC : 2016-09-08 19:52:08
_STATISTICS_TAGS : BPS DURATION NUMBER_OF_FRAMES NUMBER_OF_BYTES

 
Heroes (2006) Season 01 Episode 22 S01E22 1080p x264 BluRay [Dual Audio] [Hindi Org DD 2.0 - Eng] - monu987 Heroes (2006) Season 01 Episode 22 S01E22 1080p x264 BluRay [Dual Audio] [Hindi Org DD 2.0 - Eng] - monu987Heroes (2006) Season 01 Episode 22 S01E22 1080p x264 BluRay [Dual Audio] [Hindi Org DD 2.0 - Eng] - monu987
LETWATACH
*
*
*
*
*
*
*
GO4UP 

	

Heroes (2006) Season 01 Episode 22 S01E22 720p x264 BluRay [Dual Audio] [Hindi Org DD 2.0 – Eng] – monu987 522 MiB

Heroes (2006) Season 01 Episode 22 S01E22 720p x264 BluRay [Dual Audio] [Hindi Org DD 2.0 - Eng] - monu987

Heroes (2006) Season 01 Episode 22 S01E22 720p x264 BluRay [Dual Audio] [Hindi Org DD 2.0 – Eng] – monu987

Heroes (2006) Season 01 Episode 22 S01E22 720p x264 BluRay [Dual Audio] [Hindi Org DD 2.0 - Eng] - monu987
Format : Matroska
Format version : Version 4 / Version 2
File size : 522 MiB
Duration : 43mn 26s
Overall bit rate : 1 680 Kbps
Movie name : Heroes (2006) Season 01 Episode 22 S01E22 720p - monu987
Encoded date : UTC 2016-09-08 19:12:46
Writing application : mkvmerge v7.9.0 ('Birds') 64bit
Writing library : Lavf55.12.0
DURATION : 00:43:26.624000000
NUMBER_OF_FRAMES : 81457
NUMBER_OF_BYTES : 62558976
_STATISTICS_WRITING_APP : mkvmerge v7.9.0 ('Birds') 64bit
_STATISTICS_WRITING_DATE_UTC : 2016-09-08 19:12:46
_STATISTICS_TAGS : BPS DURATION NUMBER_OF_FRAMES NUMBER_OF_BYTES

Video
ID : 1
Format : AVC
Format/Info : Advanced Video Codec
Format profile : [email protected]
Format settings, CABAC : Yes
Format settings, ReFrames : 3 frames
Codec ID : V_MPEG4/ISO/AVC
Duration : 43mn 26s
Bit rate : 1 250 Kbps
Width : 1 280 pixels
Height : 712 pixels
Display aspect ratio : 16:9
Frame rate mode : Constant
Frame rate : 23.976 fps
Color space : YUV
Chroma subsampling : 4:2:0
Bit depth : 8 bits
Scan type : Progressive
Bits/(Pixel*Frame) : 0.057
Stream size : 382 MiB (73%)
Title : monu987
Writing library : x264 core 142 r2431 ac76440
Default : Yes
Forced : Yes
Color range : Limited
Color primaries : Generic film
Transfer characteristics : BT.709
Matrix coefficients : BT.709
DURATION : 00:43:26.604000000
NUMBER_OF_FRAMES : 62496
NUMBER_OF_BYTES : 407308931
_STATISTICS_WRITING_APP : mkvmerge v7.9.0 ('Birds') 64bit
_STATISTICS_WRITING_DATE_UTC : 2016-09-08 19:12:46
_STATISTICS_TAGS : BPS DURATION NUMBER_OF_FRAMES NUMBER_OF_BYTES

Audio #1
ID : 2
Format : AC-3
Format/Info : Audio Coding 3
Mode extension : CM (complete main)
Format settings, Endianness : Big
Codec ID : A_AC3
Duration : 43mn 26s
Bit rate mode : Constant
Bit rate : 224 Kbps
Channel(s) : 2 channels
Channel positions : Front: L R
Sampling rate : 48.0 KHz
Compression mode : Lossy
Stream size : 69.6 MiB (13%)
Title : monu987
Language : Hindi
Default : Yes
Forced : Yes

Audio #2
ID : 3
Format : AC-3
Format/Info : Audio Coding 3
Mode extension : CM (complete main)
Format settings, Endianness : Big
Codec ID : A_AC3
Duration : 43mn 26s
Bit rate mode : Constant
Bit rate : 192 Kbps
Channel(s) : 6 channels
Channel positions : Front: L C R, Side: L R, LFE
Sampling rate : 48.0 KHz
Compression mode : Lossy
Stream size : 59.7 MiB (11%)
Title : monu987
Language : English
Default : No
Forced : No
_STATISTICS_WRITING_APP : mkvmerge v7.9.0 ('Birds') 64bit
_STATISTICS_WRITING_DATE_UTC : 2016-09-08 19:12:46
_STATISTICS_TAGS : BPS DURATION NUMBER_OF_FRAMES NUMBER_OF_BYTES
DURATION : 00:42:40.558000000
NUMBER_OF_FRAMES : 1270
NUMBER_OF_BYTES : 3912583

 
Heroes (2006) Season 01 Episode 22 S01E22 720p x264 BluRay [Dual Audio] [Hindi Org DD 2.0 - Eng] - monu987 Heroes (2006) Season 01 Episode 22 S01E22 720p x264 BluRay [Dual Audio] [Hindi Org DD 2.0 - Eng] - monu987Heroes (2006) Season 01 Episode 22 S01E22 720p x264 BluRay [Dual Audio] [Hindi Org DD 2.0 - Eng] - monu987
LETWATACH
*
*
*
*
*
*
*
GO4UP 
 

Heroes (2006) Season 01 Episode 21 S01E21 720p x264 BluRay [Dual Audio] [Hindi Org DD 2.0 – Eng] – monu987 522 MiB

Heroes (2006) Season 01 Episode 21 S01E21 720p x264 BluRay [Dual Audio] [Hindi Org DD 2.0 - Eng] - monu987

Heroes (2006) Season 01 Episode 21 S01E21 720p x264 BluRay [Dual Audio] [Hindi Org DD 2.0 – Eng] – monu987

Heroes (2006) Season 01 Episode 21 S01E21 720p x264 BluRay [Dual Audio] [Hindi Org DD 2.0 - Eng] - monu987
Format : Matroska
Format version : Version 4 / Version 2
File size : 522 MiB
Duration : 43mn 26s
Overall bit rate : 1 680 Kbps
Movie name : Heroes (2006) Season 01 Episode 21 S01E21 720p - monu987
Encoded date : UTC 2016-09-08 19:12:07
Writing application : mkvmerge v7.9.0 ('Birds') 64bit
Writing library : libebml v1.3.1 + libmatroska v1.4.2
DURATION : 00:43:26.624000000
NUMBER_OF_FRAMES : 81457
NUMBER_OF_BYTES : 62558976
_STATISTICS_WRITING_APP : mkvmerge v7.9.0 ('Birds') 64bit
_STATISTICS_WRITING_DATE_UTC : 2016-09-08 19:12:07
_STATISTICS_TAGS : BPS DURATION NUMBER_OF_FRAMES NUMBER_OF_BYTES

Video
ID : 1
Format : AVC
Format/Info : Advanced Video Codec
Format profile : [email protected]
Format settings, CABAC : Yes
Format settings, ReFrames : 3 frames
Codec ID : V_MPEG4/ISO/AVC
Duration : 43mn 26s
Bit rate : 1 250 Kbps
Width : 1 280 pixels
Height : 712 pixels
Display aspect ratio : 16:9
Frame rate mode : Constant
Frame rate : 23.976 fps
Color space : YUV
Chroma subsampling : 4:2:0
Bit depth : 8 bits
Scan type : Progressive
Bits/(Pixel*Frame) : 0.057
Stream size : 382 MiB (73%)
Title : monu987
Writing library : x264 core 142 r2431 ac76440
Default : Yes
Forced : Yes
Color range : Limited
Color primaries : Generic film
Transfer characteristics : BT.709
Matrix coefficients : BT.709
DURATION : 00:43:26.604000000
NUMBER_OF_FRAMES : 62496
NUMBER_OF_BYTES : 407309764
_STATISTICS_WRITING_APP : mkvmerge v7.9.0 ('Birds') 64bit
_STATISTICS_WRITING_DATE_UTC : 2016-09-08 19:12:07
_STATISTICS_TAGS : BPS DURATION NUMBER_OF_FRAMES NUMBER_OF_BYTES

Audio #1
ID : 2
Format : AC-3
Format/Info : Audio Coding 3
Mode extension : CM (complete main)
Format settings, Endianness : Big
Codec ID : A_AC3
Duration : 43mn 26s
Bit rate mode : Constant
Bit rate : 224 Kbps
Channel(s) : 2 channels
Channel positions : Front: L R
Sampling rate : 48.0 KHz
Compression mode : Lossy
Stream size : 69.6 MiB (13%)
Title : monu987
Language : Hindi
Default : Yes
Forced : Yes

Audio #2
ID : 3
Format : AC-3
Format/Info : Audio Coding 3
Mode extension : CM (complete main)
Format settings, Endianness : Big
Codec ID : A_AC3
Duration : 43mn 26s
Bit rate mode : Constant
Bit rate : 192 Kbps
Channel(s) : 6 channels
Channel positions : Front: L C R, Side: L R, LFE
Sampling rate : 48.0 KHz
Compression mode : Lossy
Stream size : 59.7 MiB (11%)
Title : monu987
Language : English
Default : No
Forced : No
_STATISTICS_WRITING_APP : mkvmerge v7.9.0 ('Birds') 64bit
_STATISTICS_WRITING_DATE_UTC : 2016-09-08 19:12:07
_STATISTICS_TAGS : BPS DURATION NUMBER_OF_FRAMES NUMBER_OF_BYTES
DURATION : 00:42:30.089000000
NUMBER_OF_FRAMES : 1246
NUMBER_OF_BYTES : 3731558

 
Heroes (2006) Season 01 Episode 21 S01E21 720p x264 BluRay [Dual Audio] [Hindi Org DD 2.0 - Eng] - monu987 Heroes (2006) Season 01 Episode 21 S01E21 720p x264 BluRay [Dual Audio] [Hindi Org DD 2.0 - Eng] - monu987Heroes (2006) Season 01 Episode 21 S01E21 720p x264 BluRay [Dual Audio] [Hindi Org DD 2.0 - Eng] - monu987
LETWATACH
*
*
*
*
*
*
*
GO4UP 

Heroes (2006) Season 01 Episode 21 S01E21 1080p x264 BluRay [Dual Audio] [Hindi Org DD 2.0 – Eng] – monu987 910 MiB

Heroes (2006) Season 01 Episode 21 S01E21 1080p x264 BluRay [Dual Audio] [Hindi Org DD 2.0 - Eng] - monu987

Heroes (2006) Season 01 Episode 21 S01E21 1080p x264 BluRay [Dual Audio] [Hindi Org DD 2.0 – Eng] – monu987

Heroes (2006) Season 01 Episode 21 S01E21 1080p x264 BluRay [Dual Audio] [Hindi Org DD 2.0 - Eng] - monu987
Format : Matroska
Format version : Version 4 / Version 2
File size : 910 MiB
Duration : 43mn 26s
Overall bit rate : 2 930 Kbps
Movie name : Heroes (2006) Season 01 Episode 21 S01E21 1080p - monu987
Encoded date : UTC 2016-09-08 19:49:31
Writing application : mkvmerge v7.9.0 ('Birds') 64bit
Writing library : libebml v1.3.1 + libmatroska v1.4.2
DURATION : 00:43:26.624000000
NUMBER_OF_FRAMES : 81457
NUMBER_OF_BYTES : 62558976
_STATISTICS_WRITING_APP : mkvmerge v7.9.0 ('Birds') 64bit
_STATISTICS_WRITING_DATE_UTC : 2016-09-08 19:49:31
_STATISTICS_TAGS : BPS DURATION NUMBER_OF_FRAMES NUMBER_OF_BYTES

Video
ID : 1
Format : AVC
Format/Info : Advanced Video Codec
Format profile : [email protected]
Format settings, CABAC : Yes
Format settings, ReFrames : 3 frames
Codec ID : V_MPEG4/ISO/AVC
Duration : 43mn 26s
Bit rate : 2 500 Kbps
Width : 1 920 pixels
Height : 1 072 pixels
Display aspect ratio : 16:9
Frame rate mode : Constant
Frame rate : 23.976 fps
Color space : YUV
Chroma subsampling : 4:2:0
Bit depth : 8 bits
Scan type : Progressive
Bits/(Pixel*Frame) : 0.051
Stream size : 763 MiB (84%)
Title : monu987
Writing library : x264 core 142 r2431 ac76440
Default : Yes
Forced : Yes
Color range : Limited
Color primaries : Generic film
Transfer characteristics : BT.709
Matrix coefficients : BT.709
DURATION : 00:43:26.604000000
NUMBER_OF_FRAMES : 62496
NUMBER_OF_BYTES : 814583791
_STATISTICS_WRITING_APP : mkvmerge v7.9.0 ('Birds') 64bit
_STATISTICS_WRITING_DATE_UTC : 2016-09-08 19:49:31
_STATISTICS_TAGS : BPS DURATION NUMBER_OF_FRAMES NUMBER_OF_BYTES

Audio #1
ID : 2
Format : AC-3
Format/Info : Audio Coding 3
Mode extension : CM (complete main)
Format settings, Endianness : Big
Codec ID : A_AC3
Duration : 43mn 26s
Bit rate mode : Constant
Bit rate : 224 Kbps
Channel(s) : 2 channels
Channel positions : Front: L R
Sampling rate : 48.0 KHz
Compression mode : Lossy
Stream size : 69.6 MiB (8%)
Title : monu987
Language : Hindi
Default : Yes
Forced : Yes

Audio #2
ID : 3
Format : AC-3
Format/Info : Audio Coding 3
Mode extension : CM (complete main)
Format settings, Endianness : Big
Codec ID : A_AC3
Duration : 43mn 26s
Bit rate mode : Constant
Bit rate : 192 Kbps
Channel(s) : 6 channels
Channel positions : Front: L C R, Side: L R, LFE
Sampling rate : 48.0 KHz
Compression mode : Lossy
Stream size : 59.7 MiB (7%)
Title : monu987
Language : English
Default : No
Forced : No
DURATION : 00:42:30.089000000
NUMBER_OF_FRAMES : 1246
NUMBER_OF_BYTES : 3731558
_STATISTICS_WRITING_APP : mkvmerge v7.9.0 ('Birds') 64bit
_STATISTICS_WRITING_DATE_UTC : 2016-09-08 19:49:31
_STATISTICS_TAGS : BPS DURATION NUMBER_OF_FRAMES NUMBER_OF_BYTES

 
Heroes (2006) Season 01 Episode 21 S01E21 1080p x264 BluRay [Dual Audio] [Hindi Org DD 2.0 - Eng] - monu987 Heroes (2006) Season 01 Episode 21 S01E21 1080p x264 BluRay [Dual Audio] [Hindi Org DD 2.0 - Eng] - monu987Heroes (2006) Season 01 Episode 21 S01E21 1080p x264 BluRay [Dual Audio] [Hindi Org DD 2.0 - Eng] - monu987
LETWATACH
*
*
*
*
*
*
*
GO4UP 
 

Heroes (2006) Season 01 Episode 20 S01E20 1080p x264 BluRay [Dual Audio] [Hindi Org DD 2.0 – Eng] – monu987 907 MiB

Heroes (2006) Season 01 Episode 20 S01E20 1080p x264 BluRay [Dual Audio] [Hindi Org DD 2.0 - Eng] - monu987

Heroes (2006) Season 01 Episode 20 S01E20 1080p x264 BluRay [Dual Audio] [Hindi Org DD 2.0 – Eng] – monu987

Heroes (2006) Season 01 Episode 20 S01E20 1080p x264 BluRay [Dual Audio] [Hindi Org DD 2.0 - Eng] - monu987
Format : Matroska
Format version : Version 4 / Version 2
File size : 907 MiB
Duration : 43mn 15s
Overall bit rate : 2 932 Kbps
Movie name : Heroes (2006) Season 01 Episode 20 S01E20 1080p - monu987
Encoded date : UTC 2016-09-08 19:47:36
Writing application : mkvmerge v7.9.0 ('Birds') 64bit
Writing library : libebml v1.3.1 + libmatroska v1.4.2
DURATION : 00:43:15.552000000
NUMBER_OF_FRAMES : 81111
NUMBER_OF_BYTES : 62293248
_STATISTICS_WRITING_APP : mkvmerge v7.9.0 ('Birds') 64bit
_STATISTICS_WRITING_DATE_UTC : 2016-09-08 19:47:36
_STATISTICS_TAGS : BPS DURATION NUMBER_OF_FRAMES NUMBER_OF_BYTES

Video
ID : 1
Format : AVC
Format/Info : Advanced Video Codec
Format profile : [email protected]
Format settings, CABAC : Yes
Format settings, ReFrames : 3 frames
Codec ID : V_MPEG4/ISO/AVC
Duration : 43mn 15s
Bit rate : 2 500 Kbps
Width : 1 920 pixels
Height : 1 072 pixels
Display aspect ratio : 16:9
Frame rate mode : Constant
Frame rate : 23.976 fps
Color space : YUV
Chroma subsampling : 4:2:0
Bit depth : 8 bits
Scan type : Progressive
Bits/(Pixel*Frame) : 0.051
Stream size : 760 MiB (84%)
Title : monu987
Writing library : x264 core 142 r2431 ac76440
Default : Yes
Forced : Yes
Color range : Limited
Color primaries : Generic film
Transfer characteristics : BT.709
Matrix coefficients : BT.709
DURATION : 00:43:15.593000000
NUMBER_OF_FRAMES : 62232
NUMBER_OF_BYTES : 811498243
_STATISTICS_WRITING_APP : mkvmerge v7.9.0 ('Birds') 64bit
_STATISTICS_WRITING_DATE_UTC : 2016-09-08 19:47:36
_STATISTICS_TAGS : BPS DURATION NUMBER_OF_FRAMES NUMBER_OF_BYTES

Audio #1
ID : 2
Format : AC-3
Format/Info : Audio Coding 3
Mode extension : CM (complete main)
Format settings, Endianness : Big
Codec ID : A_AC3
Duration : 43mn 15s
Bit rate mode : Constant
Bit rate : 224 Kbps
Channel(s) : 2 channels
Channel positions : Front: L R
Sampling rate : 48.0 KHz
Compression mode : Lossy
Stream size : 69.3 MiB (8%)
Title : monu987
Language : Hindi
Default : Yes
Forced : Yes

Audio #2
ID : 3
Format : AC-3
Format/Info : Audio Coding 3
Mode extension : CM (complete main)
Format settings, Endianness : Big
Codec ID : A_AC3
Duration : 43mn 15s
Bit rate mode : Constant
Bit rate : 192 Kbps
Channel(s) : 6 channels
Channel positions : Front: L C R, Side: L R, LFE
Sampling rate : 48.0 KHz
Compression mode : Lossy
Stream size : 59.4 MiB (7%)
Title : monu987
Language : English
Default : No
Forced : No
DURATION : 00:41:30.363000000
NUMBER_OF_FRAMES : 1254
NUMBER_OF_BYTES : 4137347
_STATISTICS_WRITING_APP : mkvmerge v7.9.0 ('Birds') 64bit
_STATISTICS_WRITING_DATE_UTC : 2016-09-08 19:47:36
_STATISTICS_TAGS : BPS DURATION NUMBER_OF_FRAMES NUMBER_OF_BYTES

 
Heroes (2006) Season 01 Episode 20 S01E20 1080p x264 BluRay [Dual Audio] [Hindi Org DD 2.0 - Eng] - monu987 Heroes (2006) Season 01 Episode 20 S01E20 1080p x264 BluRay [Dual Audio] [Hindi Org DD 2.0 - Eng] - monu987Heroes (2006) Season 01 Episode 20 S01E20 1080p x264 BluRay [Dual Audio] [Hindi Org DD 2.0 - Eng] - monu987
LETWATACH
*
*
*
*
*
*
*
GO4UP 

	

Heroes (2006) Season 01 Episode 20 S01E20 720p x264 BluRay [Dual Audio] [Hindi Org DD 2.0 – Eng] – monu987 520 MiB

Heroes (2006) Season 01 Episode 20 S01E20 720p x264 BluRay [Dual Audio] [Hindi Org DD 2.0 - Eng] - monu987

Heroes (2006) Season 01 Episode 20 S01E20 720p x264 BluRay [Dual Audio] [Hindi Org DD 2.0 – Eng] – monu987

Heroes (2006) Season 01 Episode 20 S01E20 720p x264 BluRay [Dual Audio] [Hindi Org DD 2.0 - Eng] - monu987
Format : Matroska
Format version : Version 4 / Version 2
File size : 520 MiB
Duration : 43mn 15s
Overall bit rate : 1 681 Kbps
Movie name : Heroes (2006) Season 01 Episode 20 S01E20 720p - monu987
Encoded date : UTC 2016-09-08 19:11:14
Writing application : mkvmerge v7.9.0 ('Birds') 64bit
Writing library : libebml v1.3.1 + libmatroska v1.4.2
DURATION : 00:43:15.552000000
NUMBER_OF_FRAMES : 81111
NUMBER_OF_BYTES : 62293248
_STATISTICS_WRITING_APP : mkvmerge v7.9.0 ('Birds') 64bit
_STATISTICS_WRITING_DATE_UTC : 2016-09-08 19:11:14
_STATISTICS_TAGS : BPS DURATION NUMBER_OF_FRAMES NUMBER_OF_BYTES

Video
ID : 1
Format : AVC
Format/Info : Advanced Video Codec
Format profile : [email protected]
Format settings, CABAC : Yes
Format settings, ReFrames : 3 frames
Codec ID : V_MPEG4/ISO/AVC
Duration : 43mn 15s
Bit rate : 1 250 Kbps
Width : 1 280 pixels
Height : 712 pixels
Display aspect ratio : 16:9
Frame rate mode : Constant
Frame rate : 23.976 fps
Color space : YUV
Chroma subsampling : 4:2:0
Bit depth : 8 bits
Scan type : Progressive
Bits/(Pixel*Frame) : 0.057
Stream size : 381 MiB (73%)
Title : monu987
Writing library : x264 core 142 r2431 ac76440
Default : Yes
Forced : Yes
Color range : Limited
Color primaries : Generic film
Transfer characteristics : BT.709
Matrix coefficients : BT.709
DURATION : 00:43:15.593000000
NUMBER_OF_FRAMES : 62232
NUMBER_OF_BYTES : 405721282
_STATISTICS_WRITING_APP : mkvmerge v7.9.0 ('Birds') 64bit
_STATISTICS_WRITING_DATE_UTC : 2016-09-08 19:11:14
_STATISTICS_TAGS : BPS DURATION NUMBER_OF_FRAMES NUMBER_OF_BYTES

Audio #1
ID : 2
Format : AC-3
Format/Info : Audio Coding 3
Mode extension : CM (complete main)
Format settings, Endianness : Big
Codec ID : A_AC3
Duration : 43mn 15s
Bit rate mode : Constant
Bit rate : 224 Kbps
Channel(s) : 2 channels
Channel positions : Front: L R
Sampling rate : 48.0 KHz
Compression mode : Lossy
Stream size : 69.3 MiB (13%)
Title : monu987
Language : Hindi
Default : Yes
Forced : Yes

Audio #2
ID : 3
Format : AC-3
Format/Info : Audio Coding 3
Mode extension : CM (complete main)
Format settings, Endianness : Big
Codec ID : A_AC3
Duration : 43mn 15s
Bit rate mode : Constant
Bit rate : 192 Kbps
Channel(s) : 6 channels
Channel positions : Front: L C R, Side: L R, LFE
Sampling rate : 48.0 KHz
Compression mode : Lossy
Stream size : 59.4 MiB (11%)
Title : monu987
Language : English
Default : No
Forced : No
_STATISTICS_WRITING_APP : mkvmerge v7.9.0 ('Birds') 64bit
_STATISTICS_WRITING_DATE_UTC : 2016-09-08 19:11:14
_STATISTICS_TAGS : BPS DURATION NUMBER_OF_FRAMES NUMBER_OF_BYTES
DURATION : 00:41:30.363000000
NUMBER_OF_FRAMES : 1254
NUMBER_OF_BYTES : 4137347

 
Heroes (2006) Season 01 Episode 20 S01E20 720p x264 BluRay [Dual Audio] [Hindi Org DD 2.0 - Eng] - monu987 Heroes (2006) Season 01 Episode 20 S01E20 720p x264 BluRay [Dual Audio] [Hindi Org DD 2.0 - Eng] - monu987Heroes (2006) Season 01 Episode 20 S01E20 720p x264 BluRay [Dual Audio] [Hindi Org DD 2.0 - Eng] - monu987
LETWATACH
*
*
*
*
*
*
*
GO4UP 

	

Heroes (2006) Season 01 Episode 19 S01E19 1080p x264 BluRay [Dual Audio] [Hindi Org DD 2.0 – Eng] – monu987 906 MiB

Heroes (2006) Season 01 Episode 19 S01E19 1080p x264 BluRay [Dual Audio] [Hindi Org DD 2.0 - Eng] - monu987

Heroes (2006) Season 01 Episode 19 S01E19 1080p x264 BluRay [Dual Audio] [Hindi Org DD 2.0 – Eng] – monu987

Heroes (2006) Season 01 Episode 19 S01E19 1080p x264 BluRay [Dual Audio] [Hindi Org DD 2.0 - Eng] - monu987
Format : Matroska
Format version : Version 4 / Version 2
File size : 906 MiB
Duration : 43mn 14s
Overall bit rate : 2 931 Kbps
Movie name : Heroes (2006) Season 01 Episode 19 S01E19 1080p - monu987
Encoded date : UTC 2016-09-08 19:45:44
Writing application : mkvmerge v7.9.0 ('Birds') 64bit
Writing library : libebml v1.3.1 + libmatroska v1.4.2
DURATION : 00:43:14.208000000
NUMBER_OF_FRAMES : 81069
NUMBER_OF_BYTES : 62260992
_STATISTICS_WRITING_APP : mkvmerge v7.9.0 ('Birds') 64bit
_STATISTICS_WRITING_DATE_UTC : 2016-09-08 19:45:44
_STATISTICS_TAGS : BPS DURATION NUMBER_OF_FRAMES NUMBER_OF_BYTES

Video
ID : 1
Format : AVC
Format/Info : Advanced Video Codec
Format profile : [email protected]
Format settings, CABAC : Yes
Format settings, ReFrames : 3 frames
Codec ID : V_MPEG4/ISO/AVC
Duration : 43mn 14s
Bit rate : 2 500 Kbps
Width : 1 920 pixels
Height : 1 072 pixels
Display aspect ratio : 16:9
Frame rate mode : Constant
Frame rate : 23.976 fps
Color space : YUV
Chroma subsampling : 4:2:0
Bit depth : 8 bits
Scan type : Progressive
Bits/(Pixel*Frame) : 0.051
Stream size : 760 MiB (84%)
Title : monu987
Writing library : x264 core 142 r2431 ac76440
Default : Yes
Forced : Yes
Color range : Limited
Color primaries : Generic film
Transfer characteristics : BT.709
Matrix coefficients : BT.709
DURATION : 00:43:14.217000000
NUMBER_OF_FRAMES : 62199
NUMBER_OF_BYTES : 810920348
_STATISTICS_WRITING_APP : mkvmerge v7.9.0 ('Birds') 64bit
_STATISTICS_WRITING_DATE_UTC : 2016-09-08 19:45:44
_STATISTICS_TAGS : BPS DURATION NUMBER_OF_FRAMES NUMBER_OF_BYTES

Audio #1
ID : 2
Format : AC-3
Format/Info : Audio Coding 3
Mode extension : CM (complete main)
Format settings, Endianness : Big
Codec ID : A_AC3
Duration : 43mn 14s
Bit rate mode : Constant
Bit rate : 224 Kbps
Channel(s) : 2 channels
Channel positions : Front: L R
Sampling rate : 48.0 KHz
Compression mode : Lossy
Stream size : 69.3 MiB (8%)
Title : monu987
Language : Hindi
Default : Yes
Forced : Yes

Audio #2
ID : 3
Format : AC-3
Format/Info : Audio Coding 3
Mode extension : CM (complete main)
Format settings, Endianness : Big
Codec ID : A_AC3
Duration : 43mn 14s
Bit rate mode : Constant
Bit rate : 192 Kbps
Channel(s) : 6 channels
Channel positions : Front: L C R, Side: L R, LFE
Sampling rate : 48.0 KHz
Compression mode : Lossy
Stream size : 59.4 MiB (7%)
Title : monu987
Language : English
Default : No
Forced : No
DURATION : 00:42:25.334000000
NUMBER_OF_FRAMES : 1264
NUMBER_OF_BYTES : 4008667
_STATISTICS_WRITING_APP : mkvmerge v7.9.0 ('Birds') 64bit
_STATISTICS_WRITING_DATE_UTC : 2016-09-08 19:45:44
_STATISTICS_TAGS : BPS DURATION NUMBER_OF_FRAMES NUMBER_OF_BYTES

 
Heroes (2006) Season 01 Episode 19 S01E19 1080p x264 BluRay [Dual Audio] [Hindi Org DD 2.0 - Eng] - monu987 Heroes (2006) Season 01 Episode 19 S01E19 1080p x264 BluRay [Dual Audio] [Hindi Org DD 2.0 - Eng] - monu987Heroes (2006) Season 01 Episode 19 S01E19 1080p x264 BluRay [Dual Audio] [Hindi Org DD 2.0 - Eng] - monu987
LETWATACH
*
*
*
*
*
*
*
GO4UP 

	

Heroes (2006) Season 01 Episode 19 S01E19 720p x264 BluRay [Dual Audio] [Hindi Org DD 2.0 – Eng] – monu987 520 MiB

Heroes (2006) Season 01 Episode 19 S01E19 720p x264 BluRay [Dual Audio] [Hindi Org DD 2.0 - Eng] - monu987

Heroes (2006) Season 01 Episode 19 S01E19 720p x264 BluRay [Dual Audio] [Hindi Org DD 2.0 – Eng] – monu987

Heroes (2006) Season 01 Episode 19 S01E19 720p x264 BluRay [Dual Audio] [Hindi Org DD 2.0 - Eng] - monu987
Format : Matroska
Format version : Version 4 / Version 2
File size : 520 MiB
Duration : 43mn 14s
Overall bit rate : 1 681 Kbps
Movie name : Heroes (2006) Season 01 Episode 19 S01E19 720p - monu987
Encoded date : UTC 2016-09-08 19:10:16
Writing application : mkvmerge v7.9.0 ('Birds') 64bit
Writing library : libebml v1.3.1 + libmatroska v1.4.2
DURATION : 00:43:14.208000000
NUMBER_OF_FRAMES : 81069
NUMBER_OF_BYTES : 62260992
_STATISTICS_WRITING_APP : mkvmerge v7.9.0 ('Birds') 64bit
_STATISTICS_WRITING_DATE_UTC : 2016-09-08 19:10:16
_STATISTICS_TAGS : BPS DURATION NUMBER_OF_FRAMES NUMBER_OF_BYTES

Video
ID : 1
Format : AVC
Format/Info : Advanced Video Codec
Format profile : [email protected]
Format settings, CABAC : Yes
Format settings, ReFrames : 3 frames
Codec ID : V_MPEG4/ISO/AVC
Duration : 43mn 14s
Bit rate : 1 250 Kbps
Width : 1 280 pixels
Height : 712 pixels
Display aspect ratio : 16:9
Frame rate mode : Constant
Frame rate : 23.976 fps
Color space : YUV
Chroma subsampling : 4:2:0
Bit depth : 8 bits
Scan type : Progressive
Bits/(Pixel*Frame) : 0.057
Stream size : 381 MiB (73%)
Title : monu987
Writing library : x264 core 142 r2431 ac76440
Default : Yes
Forced : Yes
Color range : Limited
Color primaries : Generic film
Transfer characteristics : BT.709
Matrix coefficients : BT.709
DURATION : 00:43:14.217000000
NUMBER_OF_FRAMES : 62199
NUMBER_OF_BYTES : 405471744
_STATISTICS_WRITING_APP : mkvmerge v7.9.0 ('Birds') 64bit
_STATISTICS_WRITING_DATE_UTC : 2016-09-08 19:10:16
_STATISTICS_TAGS : BPS DURATION NUMBER_OF_FRAMES NUMBER_OF_BYTES

Audio #1
ID : 2
Format : AC-3
Format/Info : Audio Coding 3
Mode extension : CM (complete main)
Format settings, Endianness : Big
Codec ID : A_AC3
Duration : 43mn 14s
Bit rate mode : Constant
Bit rate : 224 Kbps
Channel(s) : 2 channels
Channel positions : Front: L R
Sampling rate : 48.0 KHz
Compression mode : Lossy
Stream size : 69.3 MiB (13%)
Title : monu987
Language : Hindi
Default : Yes
Forced : Yes

Audio #2
ID : 3
Format : AC-3
Format/Info : Audio Coding 3
Mode extension : CM (complete main)
Format settings, Endianness : Big
Codec ID : A_AC3
Duration : 43mn 14s
Bit rate mode : Constant
Bit rate : 192 Kbps
Channel(s) : 6 channels
Channel positions : Front: L C R, Side: L R, LFE
Sampling rate : 48.0 KHz
Compression mode : Lossy
Stream size : 59.4 MiB (11%)
Title : monu987
Language : English
Default : No
Forced : No
_STATISTICS_WRITING_APP : mkvmerge v7.9.0 ('Birds') 64bit
_STATISTICS_WRITING_DATE_UTC : 2016-09-08 19:10:16
_STATISTICS_TAGS : BPS DURATION NUMBER_OF_FRAMES NUMBER_OF_BYTES
DURATION : 00:42:25.334000000
NUMBER_OF_FRAMES : 1264
NUMBER_OF_BYTES : 4008667

 
Heroes (2006) Season 01 Episode 19 S01E19 720p x264 BluRay [Dual Audio] [Hindi Org DD 2.0 - Eng] - monu987 Heroes (2006) Season 01 Episode 19 S01E19 720p x264 BluRay [Dual Audio] [Hindi Org DD 2.0 - Eng] - monu987Heroes (2006) Season 01 Episode 19 S01E19 720p x264 BluRay [Dual Audio] [Hindi Org DD 2.0 - Eng] - monu987
LETWATACH
*
*
*
*
*
*
*
GO4UP 
 

Heroes (2006) Season 01 Episode 18 S01E18 1080p x264 BluRay [Dual Audio] [Hindi Org DD 2.0 – Eng] – monu987 911 MiB

Heroes (2006) Season 01 Episode 18 S01E18 1080p x264 BluRay [Dual Audio] [Hindi Org DD 2.0 - Eng] - monu987

Heroes (2006) Season 01 Episode 18 S01E18 1080p x264 BluRay [Dual Audio] [Hindi Org DD 2.0 – Eng] – monu987

Heroes (2006) Season 01 Episode 18 S01E18 1080p x264 BluRay [Dual Audio] [Hindi Org DD 2.0 - Eng] - monu987
Format : Matroska
Format version : Version 4 / Version 2
File size : 911 MiB
Duration : 43mn 28s
Overall bit rate : 2 931 Kbps
Movie name : Heroes (2006) Season 01 Episode 18 S01E18 1080p - monu987
Encoded date : UTC 2016-09-08 19:43:45
Writing application : mkvmerge v7.9.0 ('Birds') 64bit
Writing library : libebml v1.3.1 + libmatroska v1.4.2
DURATION : 00:43:28.224000000
NUMBER_OF_FRAMES : 81507
NUMBER_OF_BYTES : 62597376
_STATISTICS_WRITING_APP : mkvmerge v7.9.0 ('Birds') 64bit
_STATISTICS_WRITING_DATE_UTC : 2016-09-08 19:43:45
_STATISTICS_TAGS : BPS DURATION NUMBER_OF_FRAMES NUMBER_OF_BYTES

Video
ID : 1
Format : AVC
Format/Info : Advanced Video Codec
Format profile : [email protected]
Format settings, CABAC : Yes
Format settings, ReFrames : 3 frames
Codec ID : V_MPEG4/ISO/AVC
Duration : 43mn 28s
Bit rate : 2 500 Kbps
Width : 1 920 pixels
Height : 1 072 pixels
Display aspect ratio : 16:9
Frame rate mode : Constant
Frame rate : 23.976 fps
Color space : YUV
Chroma subsampling : 4:2:0
Bit depth : 8 bits
Scan type : Progressive
Bits/(Pixel*Frame) : 0.051
Stream size : 764 MiB (84%)
Title : monu987
Writing library : x264 core 142 r2431 ac76440
Default : Yes
Forced : Yes
Color range : Limited
Color primaries : Generic film
Transfer characteristics : BT.709
Matrix coefficients : BT.709
DURATION : 00:43:28.231000000
NUMBER_OF_FRAMES : 62535
NUMBER_OF_BYTES : 815137967
_STATISTICS_WRITING_APP : mkvmerge v7.9.0 ('Birds') 64bit
_STATISTICS_WRITING_DATE_UTC : 2016-09-08 19:43:45
_STATISTICS_TAGS : BPS DURATION NUMBER_OF_FRAMES NUMBER_OF_BYTES

Audio #1
ID : 2
Format : AC-3
Format/Info : Audio Coding 3
Mode extension : CM (complete main)
Format settings, Endianness : Big
Codec ID : A_AC3
Duration : 43mn 28s
Bit rate mode : Constant
Bit rate : 224 Kbps
Channel(s) : 2 channels
Channel positions : Front: L R
Sampling rate : 48.0 KHz
Compression mode : Lossy
Stream size : 69.6 MiB (8%)
Title : monu987
Language : Hindi
Default : Yes
Forced : Yes

Audio #2
ID : 3
Format : AC-3
Format/Info : Audio Coding 3
Mode extension : CM (complete main)
Format settings, Endianness : Big
Codec ID : A_AC3
Duration : 43mn 28s
Bit rate mode : Constant
Bit rate : 192 Kbps
Channel(s) : 6 channels
Channel positions : Front: L C R, Side: L R, LFE
Sampling rate : 48.0 KHz
Compression mode : Lossy
Stream size : 59.7 MiB (7%)
Title : monu987
Language : English
Default : No
Forced : No
DURATION : 00:42:30.631000000
NUMBER_OF_FRAMES : 1226
NUMBER_OF_BYTES : 4006010
_STATISTICS_WRITING_APP : mkvmerge v7.9.0 ('Birds') 64bit
_STATISTICS_WRITING_DATE_UTC : 2016-09-08 19:43:45
_STATISTICS_TAGS : BPS DURATION NUMBER_OF_FRAMES NUMBER_OF_BYTES

 
Heroes (2006) Season 01 Episode 18 S01E18 1080p x264 BluRay [Dual Audio] [Hindi Org DD 2.0 - Eng] - monu987 Heroes (2006) Season 01 Episode 18 S01E18 1080p x264 BluRay [Dual Audio] [Hindi Org DD 2.0 - Eng] - monu987Heroes (2006) Season 01 Episode 18 S01E18 1080p x264 BluRay [Dual Audio] [Hindi Org DD 2.0 - Eng] - monu987
LETWATACH
*
*
*
*
*
*
*
GO4UP 

	

Heroes (2006) Season 01 Episode 18 S01E18 720p x264 BluRay [Dual Audio] [Hindi Org DD 2.0 – Eng] – monu987 522 MiB

Heroes (2006) Season 01 Episode 18 S01E18 720p x264 BluRay [Dual Audio] [Hindi Org DD 2.0 - Eng] - monu987

Heroes (2006) Season 01 Episode 18 S01E18 720p x264 BluRay [Dual Audio] [Hindi Org DD 2.0 – Eng] – monu987

Heroes (2006) Season 01 Episode 18 S01E18 720p x264 BluRay [Dual Audio] [Hindi Org DD 2.0 - Eng] - monu987
Format : Matroska
Format version : Version 4 / Version 2
File size : 522 MiB
Duration : 43mn 28s
Overall bit rate : 1 680 Kbps
Movie name : Heroes (2006) Season 01 Episode 18 S01E18 720p - monu987
Encoded date : UTC 2016-09-08 19:09:23
Writing application : mkvmerge v7.9.0 ('Birds') 64bit
Writing library : libebml v1.3.1 + libmatroska v1.4.2
DURATION : 00:43:28.224000000
NUMBER_OF_FRAMES : 81507
NUMBER_OF_BYTES : 62597376
_STATISTICS_WRITING_APP : mkvmerge v7.9.0 ('Birds') 64bit
_STATISTICS_WRITING_DATE_UTC : 2016-09-08 19:09:23
_STATISTICS_TAGS : BPS DURATION NUMBER_OF_FRAMES NUMBER_OF_BYTES

Video
ID : 1
Format : AVC
Format/Info : Advanced Video Codec
Format profile : [email protected]
Format settings, CABAC : Yes
Format settings, ReFrames : 3 frames
Codec ID : V_MPEG4/ISO/AVC
Duration : 43mn 28s
Bit rate : 1 250 Kbps
Width : 1 280 pixels
Height : 712 pixels
Display aspect ratio : 16:9
Frame rate mode : Constant
Frame rate : 23.976 fps
Color space : YUV
Chroma subsampling : 4:2:0
Bit depth : 8 bits
Scan type : Progressive
Bits/(Pixel*Frame) : 0.057
Stream size : 383 MiB (73%)
Title : monu987
Writing library : x264 core 142 r2431 ac76440
Default : Yes
Forced : Yes
Color range : Limited
Color primaries : Generic film
Transfer characteristics : BT.709
Matrix coefficients : BT.709
DURATION : 00:43:28.231000000
NUMBER_OF_FRAMES : 62535
NUMBER_OF_BYTES : 407557212
_STATISTICS_WRITING_APP : mkvmerge v7.9.0 ('Birds') 64bit
_STATISTICS_WRITING_DATE_UTC : 2016-09-08 19:09:23
_STATISTICS_TAGS : BPS DURATION NUMBER_OF_FRAMES NUMBER_OF_BYTES

Audio #1
ID : 2
Format : AC-3
Format/Info : Audio Coding 3
Mode extension : CM (complete main)
Format settings, Endianness : Big
Codec ID : A_AC3
Duration : 43mn 28s
Bit rate mode : Constant
Bit rate : 224 Kbps
Channel(s) : 2 channels
Channel positions : Front: L R
Sampling rate : 48.0 KHz
Compression mode : Lossy
Stream size : 69.6 MiB (13%)
Title : monu987
Language : Hindi
Default : Yes
Forced : Yes

Audio #2
ID : 3
Format : AC-3
Format/Info : Audio Coding 3
Mode extension : CM (complete main)
Format settings, Endianness : Big
Codec ID : A_AC3
Duration : 43mn 28s
Bit rate mode : Constant
Bit rate : 192 Kbps
Channel(s) : 6 channels
Channel positions : Front: L C R, Side: L R, LFE
Sampling rate : 48.0 KHz
Compression mode : Lossy
Stream size : 59.7 MiB (11%)
Title : monu987
Language : English
Default : No
Forced : No
_STATISTICS_WRITING_APP : mkvmerge v7.9.0 ('Birds') 64bit
_STATISTICS_WRITING_DATE_UTC : 2016-09-08 19:09:23
_STATISTICS_TAGS : BPS DURATION NUMBER_OF_FRAMES NUMBER_OF_BYTES
DURATION : 00:42:30.631000000
NUMBER_OF_FRAMES : 1226
NUMBER_OF_BYTES : 4006010

 
Heroes (2006) Season 01 Episode 18 S01E18 720p x264 BluRay [Dual Audio] [Hindi Org DD 2.0 - Eng] - monu987 Heroes (2006) Season 01 Episode 18 S01E18 720p x264 BluRay [Dual Audio] [Hindi Org DD 2.0 - Eng] - monu987Heroes (2006) Season 01 Episode 18 S01E18 720p x264 BluRay [Dual Audio] [Hindi Org DD 2.0 - Eng] - monu987
LETWATACH
*
*
*
*
*
*
*
GO4UP 

	

Heroes (2006) Season 01 Episode 17 S01E17 1080p x264 BluRay [Dual Audio] [Hindi Org DD 2.0 – Eng] – monu987 911 MiB

Heroes (2006) Season 01 Episode 17 S01E17 1080p x264 BluRay [Dual Audio] [Hindi Org DD 2.0 - Eng] - monu987

Heroes (2006) Season 01 Episode 17 S01E17 1080p x264 BluRay [Dual Audio] [Hindi Org DD 2.0 – Eng] – monu987

Heroes (2006) Season 01 Episode 17 S01E17 1080p x264 BluRay [Dual Audio] [Hindi Org DD 2.0 - Eng] - monu987
Format : Matroska
Format version : Version 4 / Version 2
File size : 911 MiB
Duration : 43mn 27s
Overall bit rate : 2 931 Kbps
Movie name : Heroes (2006) Season 01 Episode 17 S01E17 1080p - monu987
Encoded date : UTC 2016-09-08 19:42:17
Writing application : mkvmerge v7.9.0 ('Birds') 64bit
Writing library : libebml v1.3.1 + libmatroska v1.4.2
DURATION : 00:43:27.232000000
NUMBER_OF_FRAMES : 81476
NUMBER_OF_BYTES : 62573568
_STATISTICS_WRITING_APP : mkvmerge v7.9.0 ('Birds') 64bit
_STATISTICS_WRITING_DATE_UTC : 2016-09-08 19:42:17
_STATISTICS_TAGS : BPS DURATION NUMBER_OF_FRAMES NUMBER_OF_BYTES

Video
ID : 1
Format : AVC
Format/Info : Advanced Video Codec
Format profile : [email protected]
Format settings, CABAC : Yes
Format settings, ReFrames : 3 frames
Codec ID : V_MPEG4/ISO/AVC
Duration : 43mn 27s
Bit rate : 2 500 Kbps
Width : 1 920 pixels
Height : 1 072 pixels
Display aspect ratio : 16:9
Frame rate mode : Constant
Frame rate : 23.976 fps
Color space : YUV
Chroma subsampling : 4:2:0
Bit depth : 8 bits
Scan type : Progressive
Bits/(Pixel*Frame) : 0.051
Stream size : 764 MiB (84%)
Title : monu987
Writing library : x264 core 142 r2431 ac76440
Default : Yes
Forced : Yes
Color range : Limited
Color primaries : Generic film
Transfer characteristics : BT.709
Matrix coefficients : BT.709
DURATION : 00:43:27.230000000
NUMBER_OF_FRAMES : 62511
NUMBER_OF_BYTES : 814815184
_STATISTICS_WRITING_APP : mkvmerge v7.9.0 ('Birds') 64bit
_STATISTICS_WRITING_DATE_UTC : 2016-09-08 19:42:17
_STATISTICS_TAGS : BPS DURATION NUMBER_OF_FRAMES NUMBER_OF_BYTES

Audio #1
ID : 2
Format : AC-3
Format/Info : Audio Coding 3
Mode extension : CM (complete main)
Format settings, Endianness : Big
Codec ID : A_AC3
Duration : 43mn 27s
Bit rate mode : Constant
Bit rate : 224 Kbps
Channel(s) : 2 channels
Channel positions : Front: L R
Sampling rate : 48.0 KHz
Compression mode : Lossy
Stream size : 69.6 MiB (8%)
Title : monu987
Language : Hindi
Default : Yes
Forced : Yes

Audio #2
ID : 3
Format : AC-3
Format/Info : Audio Coding 3
Mode extension : CM (complete main)
Format settings, Endianness : Big
Codec ID : A_AC3
Duration : 43mn 27s
Bit rate mode : Constant
Bit rate : 192 Kbps
Channel(s) : 6 channels
Channel positions : Front: L C R, Side: L R, LFE
Sampling rate : 48.0 KHz
Compression mode : Lossy
Stream size : 59.7 MiB (7%)
Title : monu987
Language : English
Default : No
Forced : No
DURATION : 00:42:28.296000000
NUMBER_OF_FRAMES : 1360
NUMBER_OF_BYTES : 4186956
_STATISTICS_WRITING_APP : mkvmerge v7.9.0 ('Birds') 64bit
_STATISTICS_WRITING_DATE_UTC : 2016-09-08 19:42:17
_STATISTICS_TAGS : BPS DURATION NUMBER_OF_FRAMES NUMBER_OF_BYTES

 
Heroes (2006) Season 01 Episode 17 S01E17 1080p x264 BluRay [Dual Audio] [Hindi Org DD 2.0 - Eng] - monu987 Heroes (2006) Season 01 Episode 17 S01E17 1080p x264 BluRay [Dual Audio] [Hindi Org DD 2.0 - Eng] - monu987Heroes (2006) Season 01 Episode 17 S01E17 1080p x264 BluRay [Dual Audio] [Hindi Org DD 2.0 - Eng] - monu987
LETWATACH
*
*
*
*
*
*
*
GO4UP 

	

Heroes (2006) Season 01 Episode 17 S01E17 720p x264 BluRay [Dual Audio] [Hindi Org DD 2.0 – Eng] – monu987 522 MiB

Heroes (2006) Season 01 Episode 17 S01E17 720p x264 BluRay [Dual Audio] [Hindi Org DD 2.0 - Eng] - monu987

Heroes (2006) Season 01 Episode 17 S01E17 720p x264 BluRay [Dual Audio] [Hindi Org DD 2.0 – Eng] – monu987

Heroes (2006) Season 01 Episode 17 S01E17 720p x264 BluRay [Dual Audio] [Hindi Org DD 2.0 - Eng] - monu987
Format : Matroska
Format version : Version 4 / Version 2
File size : 522 MiB
Duration : 43mn 27s
Overall bit rate : 1 681 Kbps
Movie name : Heroes (2006) Season 01 Episode 17 S01E17 720p - monu987
Encoded date : UTC 2016-09-08 19:08:48
Writing application : mkvmerge v7.9.0 ('Birds') 64bit
Writing library : libebml v1.3.1 + libmatroska v1.4.2
DURATION : 00:43:27.232000000
NUMBER_OF_FRAMES : 81476
NUMBER_OF_BYTES : 62573568
_STATISTICS_WRITING_APP : mkvmerge v7.9.0 ('Birds') 64bit
_STATISTICS_WRITING_DATE_UTC : 2016-09-08 19:08:48
_STATISTICS_TAGS : BPS DURATION NUMBER_OF_FRAMES NUMBER_OF_BYTES

Video
ID : 1
Format : AVC
Format/Info : Advanced Video Codec
Format profile : [email protected]
Format settings, CABAC : Yes
Format settings, ReFrames : 3 frames
Codec ID : V_MPEG4/ISO/AVC
Duration : 43mn 27s
Bit rate : 1 250 Kbps
Width : 1 280 pixels
Height : 712 pixels
Display aspect ratio : 16:9
Frame rate mode : Constant
Frame rate : 23.976 fps
Color space : YUV
Chroma subsampling : 4:2:0
Bit depth : 8 bits
Scan type : Progressive
Bits/(Pixel*Frame) : 0.057
Stream size : 383 MiB (73%)
Title : monu987
Writing library : x264 core 142 r2431 ac76440
Default : Yes
Forced : Yes
Color range : Limited
Color primaries : Generic film
Transfer characteristics : BT.709
Matrix coefficients : BT.709
DURATION : 00:43:27.230000000
NUMBER_OF_FRAMES : 62511
NUMBER_OF_BYTES : 407418650
_STATISTICS_WRITING_APP : mkvmerge v7.9.0 ('Birds') 64bit
_STATISTICS_WRITING_DATE_UTC : 2016-09-08 19:08:48
_STATISTICS_TAGS : BPS DURATION NUMBER_OF_FRAMES NUMBER_OF_BYTES

Audio #1
ID : 2
Format : AC-3
Format/Info : Audio Coding 3
Mode extension : CM (complete main)
Format settings, Endianness : Big
Codec ID : A_AC3
Duration : 43mn 27s
Bit rate mode : Constant
Bit rate : 224 Kbps
Channel(s) : 2 channels
Channel positions : Front: L R
Sampling rate : 48.0 KHz
Compression mode : Lossy
Stream size : 69.6 MiB (13%)
Title : monu987
Language : Hindi
Default : Yes
Forced : Yes

Audio #2
ID : 3
Format : AC-3
Format/Info : Audio Coding 3
Mode extension : CM (complete main)
Format settings, Endianness : Big
Codec ID : A_AC3
Duration : 43mn 27s
Bit rate mode : Constant
Bit rate : 192 Kbps
Channel(s) : 6 channels
Channel positions : Front: L C R, Side: L R, LFE
Sampling rate : 48.0 KHz
Compression mode : Lossy
Stream size : 59.7 MiB (11%)
Title : monu987
Language : English
Default : No
Forced : No
_STATISTICS_WRITING_APP : mkvmerge v7.9.0 ('Birds') 64bit
_STATISTICS_WRITING_DATE_UTC : 2016-09-08 19:08:48
_STATISTICS_TAGS : BPS DURATION NUMBER_OF_FRAMES NUMBER_OF_BYTES
DURATION : 00:42:28.296000000
NUMBER_OF_FRAMES : 1360
NUMBER_OF_BYTES : 4186956

 
Heroes (2006) Season 01 Episode 17 S01E17 720p x264 BluRay [Dual Audio] [Hindi Org DD 2.0 - Eng] - monu987 Heroes (2006) Season 01 Episode 17 S01E17 720p x264 BluRay [Dual Audio] [Hindi Org DD 2.0 - Eng] - monu987 Heroes (2006) Season 01 Episode 17 S01E17 720p x264 BluRay [Dual Audio] [Hindi Org DD 2.0 - Eng] - monu987
LETWATACH
*
*
*
*
*
*
*
GO4UP 

	

Heroes (2006) Season 01 Episode 16 S01E16 1080p x264 BluRay [Dual Audio] [Hindi Org DD 2.0 – Eng] – monu987 910 MiB

Heroes (2006) Season 01 Episode 16 S01E16 1080p x264 BluRay [Dual Audio] [Hindi Org DD 2.0 - Eng] - monu987

Heroes (2006) Season 01 Episode 16 S01E16 1080p x264 BluRay [Dual Audio] [Hindi Org DD 2.0 – Eng] – monu987

Heroes (2006) Season 01 Episode 16 S01E16 1080p x264 BluRay [Dual Audio] [Hindi Org DD 2.0 - Eng] - monu987
Format : Matroska
Format version : Version 4 / Version 2
File size : 910 MiB
Duration : 43mn 24s
Overall bit rate : 2 931 Kbps
Movie name : Heroes (2006) Season 01 Episode 16 S01E16 1080p - monu987
Encoded date : UTC 2016-09-08 19:40:56
Writing application : mkvmerge v7.9.0 ('Birds') 64bit
Writing library : libebml v1.3.1 + libmatroska v1.4.2
DURATION : 00:43:24.608000000
NUMBER_OF_FRAMES : 81394
NUMBER_OF_BYTES : 62510592
_STATISTICS_WRITING_APP : mkvmerge v7.9.0 ('Birds') 64bit
_STATISTICS_WRITING_DATE_UTC : 2016-09-08 19:40:56
_STATISTICS_TAGS : BPS DURATION NUMBER_OF_FRAMES NUMBER_OF_BYTES

Video
ID : 1
Format : AVC
Format/Info : Advanced Video Codec
Format profile : [email protected]
Format settings, CABAC : Yes
Format settings, ReFrames : 3 frames
Codec ID : V_MPEG4/ISO/AVC
Duration : 43mn 24s
Bit rate : 2 500 Kbps
Width : 1 920 pixels
Height : 1 072 pixels
Display aspect ratio : 16:9
Frame rate mode : Constant
Frame rate : 23.976 fps
Color space : YUV
Chroma subsampling : 4:2:0
Bit depth : 8 bits
Scan type : Progressive
Bits/(Pixel*Frame) : 0.051
Stream size : 763 MiB (84%)
Title : monu987
Writing library : x264 core 142 r2431 ac76440
Default : Yes
Forced : Yes
Color range : Limited
Color primaries : Generic film
Transfer characteristics : BT.709
Matrix coefficients : BT.709
DURATION : 00:43:24.602000000
NUMBER_OF_FRAMES : 62448
NUMBER_OF_BYTES : 814221314
_STATISTICS_WRITING_APP : mkvmerge v7.9.0 ('Birds') 64bit
_STATISTICS_WRITING_DATE_UTC : 2016-09-08 19:40:56
_STATISTICS_TAGS : BPS DURATION NUMBER_OF_FRAMES NUMBER_OF_BYTES

Audio #1
ID : 2
Format : AC-3
Format/Info : Audio Coding 3
Mode extension : CM (complete main)
Format settings, Endianness : Big
Codec ID : A_AC3
Duration : 43mn 24s
Bit rate mode : Constant
Bit rate : 224 Kbps
Channel(s) : 2 channels
Channel positions : Front: L R
Sampling rate : 48.0 KHz
Compression mode : Lossy
Stream size : 69.6 MiB (8%)
Title : monu987
Language : Hindi
Default : Yes
Forced : Yes

Audio #2
ID : 3
Format : AC-3
Format/Info : Audio Coding 3
Mode extension : CM (complete main)
Format settings, Endianness : Big
Codec ID : A_AC3
Duration : 43mn 24s
Bit rate mode : Constant
Bit rate : 192 Kbps
Channel(s) : 6 channels
Channel positions : Front: L C R, Side: L R, LFE
Sampling rate : 48.0 KHz
Compression mode : Lossy
Stream size : 59.6 MiB (7%)
Title : monu987
Language : English
Default : No
Forced : No
DURATION : 00:41:27.986000000
NUMBER_OF_FRAMES : 1248
NUMBER_OF_BYTES : 4029466
_STATISTICS_WRITING_APP : mkvmerge v7.9.0 ('Birds') 64bit
_STATISTICS_WRITING_DATE_UTC : 2016-09-08 19:40:56
_STATISTICS_TAGS : BPS DURATION NUMBER_OF_FRAMES NUMBER_OF_BYTES

 
Heroes (2006) Season 01 Episode 16 S01E16 1080p x264 BluRay [Dual Audio] [Hindi Org DD 2.0 - Eng] - monu987 Heroes (2006) Season 01 Episode 16 S01E16 1080p x264 BluRay [Dual Audio] [Hindi Org DD 2.0 - Eng] - monu987Heroes (2006) Season 01 Episode 16 S01E16 1080p x264 BluRay [Dual Audio] [Hindi Org DD 2.0 - Eng] - monu987
LETWATACH
*
*
*
*
*
*
*
GO4UP