Category Archives: Dual Audio WEB-DL 1080p

Excess Baggage (1997) 1080p WEBRip x264 [Dual Audio] [Hindi 2.0 – English] – monu987 2.06 GiB

Excess Baggage (1997) 1080p WEBRip x264 [Dual Audio] [Hindi 2.0 - English] - monu987

Excess Baggage (1997) 1080p WEBRip x264 [Dual Audio] [Hindi 2.0 – English] – monu987

Excess Baggage (1997) 1080p WEBRip x264 [Dual Audio] [Hindi 2.0 - English] - monu987
Format : Matroska
Format version : Version 4 / Version 2
File size : 2.06 GiB
Duration : 1h 41mn
Overall bit rate mode : Variable
Overall bit rate : 2 916 Kbps
Movie name : Excess Baggage (1997) 1080p - monu987
Encoded date : UTC 2016-10-02 06:39:25
Writing application : mkvmerge v7.9.0 ('Birds') 64bit
Writing library : libebml v1.3.1 + libmatroska v1.4.2

Video
ID : 1
Format : AVC
Format/Info : Advanced Video Codec
Format profile : [email protected]
Format settings, CABAC : Yes
Format settings, ReFrames : 4 frames
Codec ID : V_MPEG4/ISO/AVC
Duration : 1h 41mn
Bit rate mode : Variable
Bit rate : 2 500 Kbps
Maximum bit rate : 62.5 Mbps
Width : 1 920 pixels
Height : 1 080 pixels
Display aspect ratio : 16:9
Frame rate mode : Constant
Frame rate : 23.976 fps
Color space : YUV
Chroma subsampling : 4:2:0
Bit depth : 8 bits
Scan type : Progressive
Bits/(Pixel*Frame) : 0.050
Stream size : 1.72 GiB (84%)
Title : monu987
Language : English
Default : Yes
Forced : Yes
Color range : Limited
Color primaries : Generic film
Transfer characteristics : BT.709
Matrix coefficients : BT.709

Audio #1
ID : 2
Format : AC-3
Format/Info : Audio Coding 3
Mode extension : CM (complete main)
Format settings, Endianness : Big
Codec ID : A_AC3
Duration : 1h 41mn
Bit rate mode : Constant
Bit rate : 192 Kbps
Channel(s) : 2 channels
Channel positions : Front: L R
Sampling rate : 44.1 KHz
Compression mode : Lossy
Stream size : 139 MiB (7%)
Title : monu987
Language : Hindi
Default : Yes
Forced : Yes

Audio #2
ID : 3
Format : E-AC-3
Format/Info : Audio Coding 3
Format settings, Endianness : Big
Codec ID : A_EAC3
Duration : 1h 41mn
Bit rate mode : Constant
Bit rate : 224 Kbps
Channel(s) : 2 channels
Channel positions : Front: L R
Sampling rate : 48.0 KHz
Compression mode : Lossy
Stream size : 162 MiB (8%)
Title : monu987
Language : English
Default : No
Forced : No

Text
ID : 4
Format : UTF-8
Codec ID : S_TEXT/UTF8
Codec ID/Info : UTF-8 Plain Text
Title : monu987
Language : English
Default : Yes
Forced : Yes
 
Excess Baggage (1997) 1080p WEBRip x264 [Dual Audio] [Hindi 2.0 - English] - monu987 Excess Baggage (1997) 1080p WEBRip x264 [Dual Audio] [Hindi 2.0 - English] - monu987Excess Baggage (1997) 1080p WEBRip x264 [Dual Audio] [Hindi 2.0 - English] - monu987

SAMPLE

*
*
*
*
*
*
GO4UP 

	

Daughters Of Mother India (2015) 1080p WebRip x264 AAC MSubs -DDR 1.04GB

Daughters Of Mother India (2015) 1080p WebRip x264 AAC MSubs -DDR 1.04GB

Daughters Of Mother India (2015) 1080p WebRip x264 AAC MSubs -DDR 1.04GB

Specs:
Source: Netflix HD Rip @ DDR

Format : Matroska
File size : 1.01 GiB
Duration : 44 min
Overall bit rate : 3 232 kb/s

Video
ID : 1
Format : AVC
Format/Info : Advanced Video Codec
Format profile : [email protected]
Format settings, CABAC : Yes
Format settings, ReFrames : 4 frames
Codec ID : V_MPEG4/ISO/AVC
Duration : 44 min
Bit rate : 3 008 kb/s
Width : 1 920 pixels
Height : 1 080 pixels
Display aspect ratio : 16:9
Frame rate mode : Constant
Frame rate : 30.000 FPS
Color space : YUV
Chroma subsampling : 4:2:0
Bit depth : 8 bits
Scan type : Progressive
Bits/(Pixel*Frame) : 0.048
Stream size : 965 MiB (93%)
Language : English
Default : Yes
Forced : No
Color range : Limited
Color primaries : BT.709
Transfer characteristics : BT.709
Matrix coefficients : BT.709

Audio
ID : 2
Format : AAC
Format/Info : Advanced Audio Codec
Format profile : LC
Codec ID : A_AAC
Duration : 44 min
Bit rate : 221 kb/s
Channel(s) : 2 channels
Channel positions : Front: L R
Sampling rate : 48.0 kHz
Frame rate : 46.875 FPS (1024 spf)
Compression mode : Lossy
Delay relative to video : 13 ms
Stream size : 71.1 MiB (7%)
Language : Hindi
Default : Yes
Forced : No

Text #1
ID : 3
Format : UTF-8
Codec ID : S_TEXT/UTF8
Codec ID/Info : UTF-8 Plain Text
Duration : 42 min
Bit rate : 87 b/s
Count of elements : 683
Stream size : 27.4 KiB (0%)
Language : English
Default : Yes
Forced : No

Text #2
ID : 4
Format : UTF-8
Codec ID : S_TEXT/UTF8
Codec ID/Info : UTF-8 Plain Text
Duration : 44 min
Bit rate : 102 b/s
Count of elements : 770
Stream size : 33.0 KiB (0%)
Language : French
Default : No
Forced : No

Kung Pow Enter The Fist (2002) x264 1080p WEB-DL UNCUT {Dual Audio} [Hindi DD 2.0 + English 5.1] Exclusive By DREDD 997.47 MB

Kung Pow Enter The Fist (2002) x264 1080p WEB-DL UNCUT {Dual Audio} [Hindi DD 2.0 + English 5.1] Exclusive By DREDD 997.47 MB

Kung Pow Enter The Fist (2002) x264 1080p WEB-DL UNCUT {Dual Audio} [Hindi DD 2.0 + English 5.1] Exclusive By DREDD

::: INFO :::
Quote:

Video

ID : 1
Format : AVC
Format/Info : Advanced Video Codec
Format profile : [email protected]
Format settings, CABAC : Yes
Format settings, ReFrames : 5 frames
Codec ID : V_MPEG4/ISO/AVC
Duration : 1 h 27 min
Bit rate : 1 200 kb/s
Width : 1 912 pixels
Height : 816 pixels
Display aspect ratio : 2.35:1
Frame rate mode : Constant
Frame rate : 23.976 (24000/1001) FPS
Color space : YUV
Chroma subsampling : 4:2:0
Bit depth : 8 bits
Scan type : Progressive
Bits/(Pixel*Frame) : 0.032
Title : Kung Pow Enter The Fist WEB-DL 1080p 2002
Writing library : x264 core 148 r2638 7599210
Language : English
Default : Yes
Forced : No

Audio #1
ID : 2
Format : AC-3
Format/Info : Audio Coding 3
Format profile : Dolby Digital
Mode extension : CM (complete main)
Format settings, Endianness : Big
Codec ID : A_AC3
Duration : 1 h 27 min
Bit rate mode : Constant
Bit rate : 192 kb/s
Channel(s) : 2 channels
Channel positions : Front: L R
Sampling rate : 48.0 kHz
Title : Hindi
Language : Hindi
Default : Yes
Forced : Yes

Audio #2
ID : 3
Format : AAC
Format/Info : Advanced Audio Codec
Format profile : LC
Codec ID : A_AAC
Duration : 1 h 27 min
Channel(s) : 6 channels
Channel positions : Front: L C R, Side: L R, LFE
Sampling rate : 48.0 kHz
Language : English
Default : No
Forced : No

Text
ID : 4
Format : UTF-8
Codec ID : S_TEXT/UTF8
Codec ID/Info : UTF-8 Plain Text
Duration : 1 h 21 min
Bit rate : 47 b/s
Count of elements : 990
Stream size : 28.6 KiB (0%)
Title : English
Language : English
Default : Yes
Forced : No

 
Kung Pow Enter The Fist (2002) x264 1080p WEB-DL UNCUT {Dual Audio} [Hindi DD 2.0 + English 5.1] Exclusive By DREDD Kung Pow Enter The Fist (2002) x264 1080p WEB-DL UNCUT {Dual Audio} [Hindi DD 2.0 + English 5.1] Exclusive By DREDD Kung Pow Enter The Fist (2002) x264 1080p WEB-DL UNCUT {Dual Audio} [Hindi DD 2.0 + English 5.1] Exclusive By DREDD
LETWATACH
*
*
*
*
*
*
*
GO4UP 
 

The.Ring.Two.(2005).1080p.WEBRip.Hindi-English.DD-5.1Ch.Smart-Sync.(BY-GPSOFT) 10.7 GiB

The.Ring.Two.(2005).1080p.WEBRip.Hindi-English.DD-5.1Ch.Smart-Sync.(BY-GPSOFT)

The.Ring.Two.(2005).1080p.WEBRip.Hindi-English.DD-5.1Ch.Smart-Sync.(BY-GPSOFT)

This 1080p Web-HD Rip not found on Torrent World, it’s hard to find

The Ring Two (2005) 1080p WEBRip Hindi-English DD-5.1Ch Smart-Sync (BY-GPSOFT)

Format: Matroska at 13.9 Mb/s, Aspect: 1920 x 1080 (1.778) at 23.976 fps
Length: 10.7 GiB for 1 h 49 min 22 s 976 ms, Video-AVC at 12.6 Mb/s
Audio-1: Hindi DD-5.1Ch AC-3 at 448 kb/s
Audio-2: English DD-5.1Ch AC-3 at 640 kb/s
Subtitle: English UTF-8

DVD-25fps Audio Vs SYNC-23.976fps Spek

 

The.Ring.Two.(2005).1080p.WEBRip.Hindi-English.DD-5.1Ch.Smart-Sync.(BY-GPSOFT)The.Ring.Two.(2005).1080p.WEBRip.Hindi-English.DD-5.1Ch.Smart-Sync.(BY-GPSOFT)The.Ring.Two.(2005).1080p.WEBRip.Hindi-English.DD-5.1Ch.Smart-Sync.(BY-GPSOFT)

LETWATACH
*
WATCHVIDEO
*
VODLOCKER
USERSCLOUD
*
USERFILES
*
*
MULTIUP
*
JHEBERG
*
GO4UP 

Warcraft (2016) 1080p Web-HD Rip x264 Hindi AC3 2.0 -DDR 2.3 GB

Warcraft (2016) 1080p Web-HD Rip x264 Hindi AC3 2.0 -DDR

Warcraft (2016) 1080p Web-HD Rip x264 Hindi AC3 2.0 -DDR

Source: Web-HD @ HDC

Format : Matroska
File size : 2.26 GiB
Duration : 1h 58mn
Overall bit rate : 2 736 Kbps


Video
Format : AVC
Format/Info : Advanced Video Codec
Format profile : [email protected]
Format settings, CABAC : Yes
Format settings, ReFrames : 5 frames
Codec ID : V_MPEG4/ISO/AVC
Duration : 1h 58mn
Bit rate : 2 496 Kbps
Width : 1 920 pixels
Height : 784 pixels
Display aspect ratio : 2.40:1
Frame rate mode : Constant
Frame rate : 25.000 fps
Color space : YUV
Chroma subsampling : 4:2:0
Bit depth : 8 bits
Scan type : Progressive
Bits/(Pixel*Frame) : 0.066
Stream size : 2.06 GiB (91%)
Default : Yes
Forced : No
Color range : Limited
Color primaries : BT.709
Transfer characteristics : BT.709
Matrix coefficients : BT.709

Audio #1
Format : AC-3
Format/Info : Audio Coding 3
Mode extension : CM (complete main)
Format settings, Endianness : Big
Codec ID : A_AC3
Duration : 1h 49mn
Bit rate mode : Constant
Bit rate : 256 Kbps
Channel(s) : 2 channels
Channel positions : Front: L R
Sampling rate : 44.1 KHz
Frame rate : 28.711 fps (1536 spf)
Compression mode : Lossy
Stream size : 201 MiB (9%)
Language : Hindi
Default : Yes
Forced : No

Warcraft (2016) 1080p Web-HD Rip x264 Hindi AC3 2.0 -DDR Warcraft (2016) 1080p Web-HD Rip x264 Hindi AC3 2.0 -DDR Warcraft (2016) 1080p Web-HD Rip x264 Hindi AC3 2.0 -DDR Warcraft (2016) 1080p Web-HD Rip x264 Hindi AC3 2.0 -DDR

Specs:

LETWATACH
*
*
*
USERFILES
*
*
*
*
GO4UP
 

Once Upon a Time in Mumbai (2010) – 1080p – WebDL – x264 – AAC – ESubs [xDM]

   

Once Upon a Time in Mumbai (2010) – 1080p – WebDL – x264 – AAC – ESubs [xDM]

Complete name : Once Upon A Time In Mumbai (2010) – WeBDL – 1080p – x264 – AAC – ESubs [xDM].mkv
Format : Matroska
Format version : Version 4 / Version 2
File size : 3.87 GB
Duration (ms) : 2h 14mn
Total bitrate : 4 129 Kbps
Encoded date : UTC 2016-06-10 19:28:55
Encoded application : mkvmerge v9.2.0 (‘Photograph’) 64bit
Encoded library : libebml v1.3.3 + libmatroska v1.4.4
DURATION : 02:08:44.805000000
NUMBER_OF_FRAMES : 1715
NUMBER_OF_BYTES : 53394
_STATISTICS_WRITING_APP : mkvmerge v9.2.0 (‘Photograph’) 64bit
_STATISTICS_WRITING_DATE_UT : 2016-06-10 19:28:55
_STATISTICS_TAGS : BPS DURATION NUMBER_OF_FRAMES NUMBER_OF_BYTES

===================== Video =====================
Id : 1
Format : AVC
Format info : Advanced Video Codec
Format profile : [email protected]
Use of CABAC : Yes
RefFrames : 3 frames
Codec Id : V_MPEG4/ISO/AVC
Duration (ms) : 2h 14mn
Width : 1 920 pixels
Height : 808 pixels
Aspect ratio : 2.40:1
Framerate mode : Constant
Framerate : 24.000 fps
Colorimetry : YUV
Colos space : 4:2:0
Bit depth : 8 bits
Scan type : Progressive
Title : xDM
Encoded library : Zencoder Video Encoding System
Default/String : Yes
Forced/String : No

===================== Audio =====================
Id : 2
Format : AAC
Format info : Advanced Audio Codec
Format profile : LC
Codec Id : A_AAC
Duration (ms) : 2h 14mn
Channel(s) : 2 channels
ChannelPositions : Front: L R
Sampling rate : 44.1 KHz
Compression_Mode/String : Lossy
Video_Delay/String : -60ms
Title : xDM
Default/String : Yes
Forced/String : No

===================== Text =====================
Id : 3
Format : UTF-8
Codec Id : S_TEXT/UTF8
Codec info : UTF-8 Plain Text
Title : xDM
Default/String : Yes
Forced/String : No

http://extraimago.com/images/2016/06/10/vlcsnap-error249.png

http://extraimago.com/images/2016/06/10/vlcsnap-error920.png

http://extraimago.com/images/2016/06/10/vlcsnap-error214.png

 

LETWATACH
*
*
*
*
*
*
*
GO4UP 

Godzilla (2014)[1080p][Hindi Audio Only]~2.15 GB

Godzilla (2014)[1080p][Hindi Audio Only]~2.15 GB

Format : Matroska
Format version : Version 4 / Version 2
File size : 2.15 GiB
Duration : 2h 3mn
Overall bit rate : 2 495 Kbps
Encoded date : UTC 2016-05-01 21:30:28
Writing application : mkvmerge v9.1.0 (‘Little Earthquakes’) 32bit
Writing library : libebml v1.3.3 + libmatroska v1.4.4

Video
ID : 1
Format : AVC
Duration : 2h 3mn
Bit rate : 2 046 Kbps
Width : 1 920 pixels
Height : 800 pixels
Display aspect ratio : 2.40:1
Frame rate mode : Constant
Frame rate : 23.976 (24000/1001) fps
Original frame rate : 23.976 (23976/1000) fps
Color space : YUV
Chroma subsampling : 4:2:0
Bit depth : 8 bits
Scan type : Progressive
Bits/(Pixel*Frame) : 0.056
Color range : Limited
Color primaries : BT.709
Matrix coefficients : BT.709

Audio
ID : 2
Format : AC-3
Format/Info : Audio Coding 3
Mode extension : CM (complete main)
Format settings, Endianness : Big
Codec ID : A_AC3
Duration : 2h 3mn
Bit rate mode : Constant
Bit rate : 448 Kbps
Channel(s) : 6 channels
Channel positions : Front: L C R, Side: L R, LFE
Sampling rate : 48.0 KHz
Frame rate : 31.250 fps (1536 spf)
Compression mode : Lossy
Stream size : 395 MiB (18%)
Title : Dzrg Torrents
Language : Hindi
Default : Yes
Forced : No

 http://extraimago.com/images/2016/05/02/Thumbnails.jpg
*
*
*
*
*
*