Category Archives: Dual Audio DVDRip

The Peeping Tom (1996) UNRATED 720p DVDRip x264 Eng Subs [Dual Audio] [Hindi 2.0 – Chinese 2.0] Exclusive By -=!Dr.STAR! 1.2GB

The Peeping Tom (1996) UNRATED 720p DVDRip x264 Eng Subs [Dual Audio] [Hindi 2.0 - Chinese 2.0] Exclusive By -=!Dr.STAR! 1.2GB

The Peeping Tom (1996) UNRATED 720p DVDRip x264 Eng Subs [Dual Audio] [Hindi 2.0 – Chinese 2.0] Exclusive By -=!Dr.STAR! 1.2GB

Continue reading The Peeping Tom (1996) UNRATED 720p DVDRip x264 Eng Subs [Dual Audio] [Hindi 2.0 – Chinese 2.0] Exclusive By -=!Dr.STAR! 1.2GB

Up Up And Away (2000) x264 480p PDTV ENG SUBS {Dual Audio} [Hindi DD 2.0 + English 2.0] Exclusive By DREDD

Up Up And Away (2000) x264 480p PDTV ENG SUBS {Dual Audio} [Hindi DD 2.0 + English 2.0] Exclusive By DREDD

Up Up And Away (2000) x264 480p PDTV ENG SUBS {Dual Audio} [Hindi DD 2.0 + English 2.0] Exclusive By DREDD

Video

ID : 1
Format : AVC
Format/Info : Advanced Video Codec
Format profile : [email protected]
Format settings, CABAC : Yes
Format settings, ReFrames : 5 frames
Codec ID : V_MPEG4/ISO/AVC
Duration : 1 h 17 min
Bit rate : 1 421 kb/s
Width : 640 pixels
Height : 480 pixels
Display aspect ratio : 4:3
Frame rate mode : Constant
Frame rate : 23.976 (24000/1001) FPS
Color space : YUV
Chroma subsampling : 4:2:0
Bit depth : 8 bits
Scan type : Progressive
Bits/(Pixel*Frame) : 0.193
Title : Up, Up, and Away 480p PDTV
Writing library : x264 core 148 r2638 7599210
Language : English
Default : Yes
Forced : No

Audio #1
ID : 2
Format : AC-3
Format/Info : Audio Coding 3
Format profile : Dolby Digital
Mode extension : CM (complete main)
Format settings, Endianness : Big
Codec ID : A_AC3
Duration : 1 h 17 min
Bit rate mode : Constant
Bit rate : 192 kb/s
Channel(s) : 2 channels
Channel positions : Front: L R
Sampling rate : 48.0 kHz
Title : Hindi- DREDD
Language : Hindi
Default : Yes
Forced : Yes

Audio #2
ID : 3
Format : AAC
Format/Info : Advanced Audio Codec
Format profile : LC
Codec ID : A_AAC
Duration : 1 h 17 min
Bit rate : 119 kb/s
Channel(s) : 2 channels
Channel positions : Front: L R
Sampling rate : 48.0 kHz
Title : English
Language : English
Default : No
Forced : No

Text
ID : 4
Format : UTF-8
Codec ID : S_TEXT/UTF8
Codec ID/Info : UTF-8 Plain Text
Duration : 1 h 16 min
Bit rate : 107 b/s
Count of elements : 1461
Title : English
Default : Yes
Forced : No

7 Hours To Go (2016) x264 DVDRip AC3 5.1 ESub -DDR 1.48GB

7 Hours To Go (2016) x264 DVDRip AC3 5.1 ESub -DDR 1.48GB

7 Hours To Go (2016) x264 DVDRip AC3 5.1 ESub -DDR 1.48GB

[ Info ]

Source : DVD9 @ DDR
General
Format : Matroska
File size : 1.46 GiB
Duration : 1 h 54 min
Overall bit rate : 1 837 kb/s

Video
Format : AVC
Format/Info : Advanced Video Codec
Format profile : [email protected]
Format settings, CABAC : Yes
Format settings, ReFrames : 16 frames
Codec ID : V_MPEG4/ISO/AVC
Duration : 1 h 54 min
Bit rate : 1 385 kb/s
Width : 720 pixels
Height : 304 pixels
Display aspect ratio : 2.35:1
Frame rate mode : Constant
Frame rate : 23.976 (24000/1001) FPS
Color space : YUV
Chroma subsampling : 4:2:0
Bit depth : 8 bits
Scan type : Progressive
Bits/(Pixel*Frame) : 0.264
Stream size : 1.10 GiB (75%)
Color primaries : BT.601 NTSC
Transfer characteristics : BT.470 System B, BT.470 System G
Matrix coefficients : BT.601

Audio
Format : AC-3
Format/Info : Audio Coding 3
Mode extension : CM (complete main)
Format settings, Endianness : Big
Codec ID : A_AC3
Duration : 1 h 54 min
Bit rate mode : Constant
Bit rate : 448 kb/s
Channel(s) : 6 channels
Channel positions : Front: L C R, Side: L R, LFE
Sampling rate : 48.0 kHz
Frame rate : 31.250 FPS (1536 spf)
Compression mode : Lossy
Delay relative to video : 15 ms
Stream size : 366 MiB (24%)
Language : Hindi
Default : Yes
Forced : No 

Transylvania 6-5000 (1985) x264 576p DVDRiP UNCUT {Dual Audio} [Hindi DD 2.0 + English 2.0] Exclusive By DREDD – 1.1 GB

Transylvania 6-5000 (1985) x264 576p DVDRiP UNCUT {Dual Audio} [Hindi DD 2.0 + English 2.0] Exclusive By DREDD

Transylvania 6-5000 (1985) x264 576p DVDRiP UNCUT {Dual Audio} [Hindi DD 2.0 + English 2.0] Exclusive By DREDD

Video

ID : 1
Format : AVC
Format/Info : Advanced Video Codec
Format profile : [email protected]
Format settings, CABAC : Yes
Format settings, ReFrames : 4 frames
Codec ID : V_MPEG4/ISO/AVC
Duration : 1 h 34 min
Bit rate : 1 500 kb/s
Width : 720 pixels
Height : 576 pixels
Display aspect ratio : 5:4
Frame rate mode : Constant
Frame rate : 23.976 (23976/1000) FPS
Color space : YUV
Chroma subsampling : 4:2:0
Bit depth : 8 bits
Scan type : Progressive
Bits/(Pixel*Frame) : 0.151
Stream size : 970 MiB (85%)
Title : Transylvania 6-5000 DVD 1985
Writing library : x264 core 148 r2638 7599210
Language : English
Default : Yes
Forced : No

Audio #1
ID : 2
Format : AC-3
Format/Info : Audio Coding 3
Format profile : Dolby Digital
Mode extension : CM (complete main)
Format settings, Endianness : Big
Codec ID : A_AC3
Duration : 1 h 34 min
Bit rate mode : Constant
Bit rate : 192 kb/s
Channel(s) : 2 channels
Channel positions : Front: L R
Sampling rate : 48.0 kHz
Title : Hindi - DREDD
Language : Hindi
Default : Yes
Forced : Yes

Audio #2
ID : 3
Format : AAC
Format/Info : Advanced Audio Codec
Format profile : LC
Codec ID : A_AAC
Duration : 1 h 34 min
Bit rate : 61.5 kb/s
Channel(s) : 2 channels
Channel positions : Front: L R
Sampling rate : 48.0 kHz
Title : English
Language : English
Default : No
Forced : No

Text
ID : 4
Format : UTF-8
Codec ID : S_TEXT/UTF8
Codec ID/Info : UTF-8 Plain Text
Duration : 1 h 31 min
Bit rate : 54 b/s
Count of elements : 1130
Title : English
Language : English
Default : Yes
Forced : No

Menu
00:00:00.000 : :Chapter 01
00:26:00.000 : :Chapter 02
00:46:00.000 : :Chapter 03
01:09:00.000 : :Chapter 04
01:22:00.000 : :Chapter 05

[18+] The Sensuous Nurse (1975) UNRATED 480p DVDRip x264 Eng Subs [Dual Audio] [Hindi 2.0 – English 2.0] -=!Dr.STAR!=- 1003 MiB

[18+] The Sensuous Nurse (1975) UNRATED 480p DVDRip x264 Eng Subs [Dual Audio] [Hindi 2.0 - English 2.0] -=!Dr.STAR!=-

[18+] The Sensuous Nurse (1975) UNRATED 480p DVDRip x264 Eng Subs [Dual Audio] [Hindi 2.0 – English 2.0] -=!Dr.STAR!=-

::::Info::::

---Movie Details---
Quote:

General
Format : Matroska
Format version : Version 4 / Version 2
File size : 1003 MiB
Duration : 1h 40mn
Overall bit rate : 1 390 Kbps

Video
ID : 1
Format : AVC
Codec ID : V_MPEG4/ISO/AVC
Nominal bit rate : 1 083 Kbps
Width : 800 pixels
Height : 480 pixels
Display aspect ratio : 5:3
Frame rate mode : Variable
Original frame rate : 25.904 fps
Title : -=!Dr.STAR!=-
Writing library : x264 core 79

Audio #1
ID : 2
Format : AC-3
Codec ID : A_AC3
Duration : 1h 40mn
Bit rate mode : Constant
Bit rate : 192 Kbps
Channel(s) : 2 channels
Channel positions : Front: L R
Sampling rate : 48.0 KHz
Title : -=!Dr.STAR!=-
Language : Hindi

Audio #2
ID : 3
Format : AAC
Codec ID : A_AAC
Duration : 1h 40mn
Channel(s) : 2 channels
Channel positions : Front: L R
Sampling rate : 48.0 KHz
Title : -=!Dr.STAR!=-
Language : English

Text
ID : 4
Format : VobSub
Codec ID/Info : Picture based subtitle format used on DVDs
Title : -=!Dr.STAR!=-
Language : English

 
[18+] The Sensuous Nurse (1975) UNRATED 480p DVDRip x264 Eng Subs [Dual Audio] [Hindi 2.0 - English 2.0] -=!Dr.STAR!=-[18+] The Sensuous Nurse (1975) UNRATED 480p DVDRip x264 Eng Subs [Dual Audio] [Hindi 2.0 - English 2.0] -=!Dr.STAR!=-[18+] The Sensuous Nurse (1975) UNRATED 480p DVDRip x264 Eng Subs [Dual Audio] [Hindi 2.0 - English 2.0] -=!Dr.STAR!=-

LETWATACH
*
*
*
*
*
*
*
GO4UP 
 

 

City Of Darkness 1999 Dual Audio Hindi 480p DVDRip – 300mb

City Of Darkness 1999 Dual Audio Hindi Movie Download

 

City Of Darkness 1999 Dual Audio Hindi 480p DVDRip 300mb

 

IMDB Ratings: 6.3/10
 Genres: Action
 Language: Hindi + Chinese
 Quality: 480p DVDRip
 Size: 298mb
 Director: Maan-Cheung Lam, Tin Hung Yiu
 Writers: Maan-Cheung Lam, Tin Hung Yiu
 Stars: Shiao-Hu Tso, Chi-Chiang Chen, Lee Law

Movie Plot: The plot basically revolves around Fei, White and Fong, 3 youngsters who are unknowingly related and are carrying pendants that are actually parts of a map which leads to the legendary ‘Holy Wall’ treasure. After a ruthless businessman and triad boss called Duanmu (Collin Chou) tracks them down, he sends in the goons to kidnap and force them to reveal the secret location of the artifact. Fortunately, their paths cross with those of nice guy cops Edge and his crazy partner Lin Dan (Donnie Yen), who take it upon themselves to protect the kids and to find the legendary loot before it falls into the clutches of evil.




https://1.bp.blogspot.com/-N9sRWSbYL40/V34itgBnOcI/AAAAAAAANos/px9zt332mwgIRWIeoYyUOUvO0u6Qg_3dQCLcB/s1600/City%2BOf%2BDarkness%2B1999%2BDual%2BAudio%2BHindi%2B480p%2BDVDRip.jpg


 

The Intruder (2010) x264 480p DVDRiP ENG SUBS {Dual Audio} [Hindi 2.0 + Thai 5.1] Exclusive By DREDD 1.1Gb

The Intruder (2010) x264 480p DVDRiP ENG SUBS {Dual Audio} [Hindi 2.0 + Thai 5.1] Exclusive By DREDD

The Intruder (2010) x264 480p DVDRiP ENG SUBS {Dual Audio} [Hindi 2.0 + Thai 5.1] Exclusive By DREDD 1.1Gb

810356f75_JBm_VC.gif

!!!... Original Title : Khew Ar-khard ...!!!

In 1983 before the giant Suvarnabhumi international airport was built, the neglected and unoccupied area was called "King Cobra Swamp" by the locals. As building commenced, a huge old Banyan tree blocked the constructions path. A work crew call in a mechanical digger to remove the tree. As the roots are torn from the ground 1000s of cobra bones explode from the earth tearing them to pieces. After the passing of the grim massacre, witnesses who survived tell strange stories about and evil Cobra spirit. Years later when a new apartment block was built on the ground, Nin, the buildings owner has to face the horrifying matter when hundreds of Cobra hell bent on killing every living person in the apartment appear. People believe that again it is the vengeance of the Spirit. How will they survive, when being hunted by vengeance without mercy?

Video

ID : 1
Format : AVC
Format/Info : Advanced Video Codec
Format profile : [email protected]
Format settings, CABAC : Yes
Format settings, ReFrames : 5 frames
Codec ID : V_MPEG4/ISO/AVC
Duration : 1h 40mn
Nominal bit rate : 1 172 Kbps
Width : 720 pixels
Height : 400 pixels
Display aspect ratio : 16:9
Frame rate mode : Constant
Frame rate : 25.000 fps
Color space : YUV
Chroma subsampling : 4:2:0
Bit depth : 8 bits
Scan type : Progressive
Bits/(Pixel*Frame) : 0.163
Title : The Intruder DVD 2010
Writing library : x264 core 148 r2638 7599210
Language : Thai
Default : Yes
Forced : No

Audio #1
ID : 2
Format : AC-3
Format/Info : Audio Coding 3
Format profile : Dolby Digital
Mode extension : CM (complete main)
Format settings, Endianness : Big
Codec ID : A_AC3
Duration : 1h 40mn
Bit rate mode : Constant
Bit rate : 128 Kbps
Channel(s) : 2 channels
Channel positions : Front: L R
Sampling rate : 48.0 KHz
Title : Hindi - DREDD
Language : Hindi
Default : Yes
Forced : Yes

Audio #2
ID : 3
Format : AAC
Format/Info : Advanced Audio Codec
Format profile : LC
Codec ID : A_AAC
Duration : 1h 40mn
Channel(s) : 6 channels
Channel positions : Front: L C R, Side: L R, LFE
Sampling rate : 48.0 KHz
Title : Thai
Language : Thai
Default : No
Forced : No

Text
ID : 4
Format : UTF-8
Codec ID : S_TEXT/UTF8
Codec ID/Info : UTF-8 Plain Text
Title : English
Language : English
Default : No
Forced : No

Menu
00:00:00.000 : en:Chapter 1
00:09:34.880 : en:Chapter 2
00:17:23.840 : en:Chapter 3
00:27:21.920 : en:Chapter 4
00:34:32.960 : en:Chapter 5
00:39:40.640 : en:Chapter 6
00:50:09.440 : en:Chapter 7
00:54:25.280 : en:Chapter 8
01:02:43.040 : en:Chapter 9
01:08:18.080 : en:Chapter 10
01:19:28.160 : en:Chapter 11
01:25:32.480 : en:Chapter 12
01:31:49.280 : en:Chapter 13
01:38:09.920 : en:Chapter 14

CRIMINAL (2016) 1CD DVDRIP HINDI DUBBED 700Mb

CRIMINAL (2016) 1CD DVDRIP HINDI DUBBED 700Mb

CRIMINAL (2016) 1CD DVDRIP HINDI DUBBED 700Mb

[NAME]:…………………….[ Criminal
[DIRECTOR]:…………………[ Ariel Vromen
[RELEASE DATE]:……………..[ 15 April 2016 (USA)
[GENRE]:……………………[ Action, Crime, Drama
[VIDEO]:……………………[ MKV – x264
[AUDIO]:……………………[ AAC
[FILE SIZE]:………………..[ 700MB
[RESOLUTION]:……………….[ 720×304
[FRAME RATE]:……………….[ 29.97 fps
[LANGUAGE]:…………………[ Hindi
[RUNTIME]:………………….[ 01:52:49

Jackie Chan and The 36 Crazy Fists (1977) 480p UNCUT DVDRip x264 [Dual Audio] [Hindi 2.0 – English 2.0] -=!Dr.STAR!=- 716 MB

Jackie Chan and The 36 Crazy Fists (1977) 480p UNCUT DVDRip x264 [Dual Audio] [Hindi 2.0 – English 2.0] -=!Dr.STAR!=-

Kung Fu Classic !!!

[-=!Dr.STAR!=-]

Perfect Synchronization at its Best – Brought to you By STAR…… Doctor STAR

Cover_Jackie_Chan_and_The_36_Crazy_Fists_1977.jpg

::::Info::::

---Movie Details---
Quote:

General
Format : Matroska
Format version : Version 4 / Version 2
File size : 708 MiB
Duration : 1h 27mn
Overall bit rate : 1 132 Kbps

Video
ID : 1
Format : AVC
Codec ID : V_MPEG4/ISO/AVC
Duration : 1h 27mn
Nominal bit rate : 900 Kbps
Width : 720 pixels
Height : 416 pixels
Display aspect ratio : 1.85:1
Frame rate : 25.000 fps
Title : -=!Dr.STAR!=-
Writing library : x264 core 77

Audio #1
ID : 2
Format : MPEG Audio
Codec ID : A_MPEG/L3
Codec ID/Hint : MP3
Duration : 1h 27mn
Bit rate mode : Constant
Bit rate : 128 Kbps
Channel(s) : 2 channels
Sampling rate : 48.0 KHz
Title : -=!Dr.STAR!=-
Language : Hindi

Audio #2
ID : 3
Format : AAC
Codec ID : A_AAC
Duration : 1h 27mn
Channel(s) : 2 channels
Channel positions : Front: L R
Sampling rate : 48.0 KHz
Title : -=!Dr.STAR!=-
Language : English

Uploader’s Note

It’s Time for Kung Fu Classic Movie in Perfect Sync and UNCUT Hindi Audio… (It’s Indian Dubbed)
STAR Release as 480p DVDRip Dual Audio with Absolutely Lip to Lip Sync By -=!Dr.STAR!=-
Video – CarJacker – Million Thanx !!!
Perfect Sync Credits to The STAR Releaser -=!Dr.STAR!=-
So……Give Credits wherever you share/use :thumbs:
Just leave Only 1 Valuable Comment – I will Reply with more STAR Movies…. SO KEEP COMMENTING


 JCT36CF3.md.pngJCT36CF1.md.png

JCT36CF5.md.pngJCT36CF7.md.png

JCT36CF2.md.pngJCT36CF8.md.png

JCT36CF4.md.pngJCT36CF6.md.png

LETWATACH
*
*
USERSFILES
*
*
*
*
 

 

Snake In The Monkey’s Shadow (1979) 480p DVDRip [Dual Audio] [Hindi 2.0 – English 2.0] -=!Dr.STAR!=- 615 MB

 Snake In The Monkey’s Shadow (1979) 480p DVDRip [Dual Audio] [Hindi 2.0 – English 2.0] -=!Dr.STAR!=-

Kung Fu Classic !!!

[-=!Dr.STAR!=-]

Perfect Synchronization at its Best – Brought to you By STAR…… Doctor STAR

Cover_Snake_In_The_Monkey_s_Shadow_1979.jpg

::::Info::::

---Movie Details---
Quote:

General
Format : Matroska
Format version : Version 4 / Version 2
File size : 609 MiB
Duration : 1h 24mn
Overall bit rate : 1 007 Kbps

Video
ID : 1
Format : AVC
Codec ID : V_MPEG4/ISO/AVC
Duration : 1h 24mn
Bit rate : 603 Kbps
Width : 854 pixels
Height : 370 pixels
Display aspect ratio : 2.35:1
Frame rate mode : Constant
Frame rate : 25.000 fps
Title : -=!Dr.STAR!=-
Language : English

Audio #1
ID : 2
Format : AC-3
Codec ID : A_AC3
Duration : 1h 24mn
Bit rate mode : Constant
Bit rate : 192 Kbps
Channel(s) : 2 channels
Channel positions : Front: L R
Sampling rate : 48.0 KHz
Title : -=!Dr.STAR!=-
Language : Hindi

Audio #2
ID : 3
Format : MPEG Audio
Codec ID/Hint : MP3
Duration : 1h 24mn
Bit rate mode : Constant
Bit rate : 192 Kbps
Channel(s) : 2 channels
Sampling rate : 44.1 KHz
Stream size : 116 MiB (19%)
Title : -=!Dr.STAR!=-
Language : English

 SITMS1.md.pngSITMS2.md.png

SITMS4.md.pngSITMS8.md.png

SITMS3.md.pngSITMS5.md.png

SITMS6.md.pngSITMS7.md.png

:::::NOTE::::

Quote:

Uploader’s Note

It’s Time for Kung Fu Classic Movie in Perfect Sync and UNCUT Hindi Audio… (It’s Indian Dubbed)
STAR Release as 480p DVDRip Dual Audio with Absolutely Lip to Lip Sync By -=!Dr.STAR!=-
Perfect Sync Credits to The STAR Releaser -=!Dr.STAR!=-
So……Give Credits wherever you share/use :thumbs:
Just leave Only 1 Valuable Comment – I will Reply with more STAR Movies…. SO KEEP COMMENTING

LETWATACH
*
*
USERSFILES
*
*
*
*