Category Archives: Dual Audio DVDRip 1080p

Ted 2 (2015) Unrated 1080p BluRay x264 [Dual Audio] [Hindi DD 5.1 – English] – monu987 2.77 GB

Ted 2 (2015) Unrated 1080p BluRay x264 [Dual Audio] [Hindi DD 5.1 – English] – monu987
 
Ted 2 (2015) Unrated 1080p BluRay x264 [Dual Audio] [Hindi DD 5.1 – English] – monu987
Format : Matroska
Format version : Version 4 / Version 2
File size : 2.74 GiB
Duration : 2h 0mn
Overall bit rate : 3 249 KbpsVideo
ID : 1
Format : AVC
Format/Info : Advanced Video Codec
Format profile :[email protected]
Format settings, CABAC : Yes
Format settings, ReFrames : 5 frames
Codec ID : V_MPEG4/ISO/AVC
Duration : 2h 0mn
Bit rate : 2 503 Kbps
Width : 1 920 pixels
Height : 800 pixels
Display aspect ratio : 2.40:1
Frame rate mode : Constant
Frame rate : 25.000 fps
Original frame rate : 23.976 fps
Color space : YUV
Chroma subsampling : 4:2:0
Bit depth : 8 bits
Scan type : Progressive
Bits/(Pixel*Frame) : 0.065
Stream size : 2.15 GiB (78%)
Title : monu987
Writing library : x264 core 142 r2431 ac76440
Default : Yes
Forced : No
Color range : Limited
Color primaries : Generic film
Transfer characteristics : BT.709
Matrix coefficients : BT.709Audio #1
ID : 2
Format : AC-3
Format/Info : Audio Coding 3
Mode extension : CM (complete main)
Format settings, Endianness : Big
Codec ID : A_AC3
Duration : 2h 0mn
Bit rate mode : Constant
Bit rate : 448 Kbps
Channel(s) : 6 channels
Channel positions : Front: L C R, Side: L R, LFE
Sampling rate : 48.0 KHz
Bit depth : 16 bits
Compression mode : Lossy
Delay relative to video : 850ms
Stream size : 387 MiB (14%)
Title : monu987
Language : Hindi
Default : Yes
Forced : Yes

Audio #2
ID : 3
Format : AC-3
Format/Info : Audio Coding 3
Mode extension : CM (complete main)
Format settings, Endianness : Big
Codec ID : A_AC3
Duration : 2h 0mn
Bit rate mode : Constant
Bit rate : 192 Kbps
Channel(s) : 6 channels
Channel positions : Front: L C R, Side: L R, LFE
Sampling rate : 48.0 KHz
Bit depth : 16 bits
Compression mode : Lossy
Stream size : 166 MiB (6%)
Title : monu987
Language : English
Default : No
Forced : No




Special Thanks To Vivek Bro For Hindi Audio Source……
Also Thanks MicjD~JSR For Perfect Synced Audio…..


Note: No Watermarks/Tags in Audio & Video …. Enjoy Movie:)



Thanks To PerfectHDMovies Admins and Mods……..Keep it up Guys

Special Thanks To – TMX, Invincible,Sadhu’s-HD,Sher-Khan,sbaz44,TBI,DrStar,Dredd,David,Shawn-James, Abu-Hamza

Respect To All Teams – HDDR,Gpsoft,IcTv,SDR,HKRG,TEAM warriors,TeamTNT,M2TV,Hon3y,Team-Exd,XMR,TMRG,PerfectHDMovies and other past-present teams

Also Thanks To All Hollywood Hindi Dubbed Movie Lovers For There Appreciation (y)

02996b4.md.png 01582db.md.png
07dfc33.md.png 0388668.md.png
084fce3.md.png 09ff88b.md.png
046b183.md.png 0548eb2.md.png
064adf0.md.png 10.md.png
LETWATACH 
*
VODLOCKER
USERSCLOUD
*
USERFILES
*
MULTIUP
*
JHEBERG
*
GO4UP

 

The RED Collection (2010-2013) + Extras 1080p BluRay x264 Dual Audio [English 5.1 + Hindi 2.0 + 5.1] – TBI

The RED Collection (2010-2013) + Extras 1080p BluRay x264 Dual Audio [English 5.1 + Hindi 2.0 + 5.1] - TBI @PerfecrHDMovies

The RED Collection (2010-2013) + Extras 1080p BluRay x264 Dual Audio [English 5.1 + Hindi 2.0 + 5.1] – TBI

 


 

 

RED (2010) @PerfectHDMovies

RED (2010)

Release Info:
Release Name: RED (2010)
 Size: 1.87 GiB
 Video: AVC | 1920 x 800 | 2000 Kbps | 23.976 FPS | 2.40:1
 Audio 1: English | 224 Kbps | 6ch | AC3
 Audio 2: Hindi | 192 Kbps | 2ch | AC3
 Runtime: 01h 51mn 09sec
 Subtitles: None
 Source: Bluray.~Relizer~ / Own DVD
IMDB Info:

Name: RED (2010)
 Genre: Action, Comedy, Crime
 IMDB: http://www.imdb.com/title/tt1245526/
 IMDB Rating: 7.1/10 from 209,993 users
 Director: Robert Schwentke
 Writers: Jon Hoeber (screenplay), Erich Hoeber (screenplay)
 Cast: Bruce Willis, Helen Mirren, Morgan Freeman
 Plot: When his peaceful life is threatened by a high-tech assassin, former black-ops agent Frank
 Moses reassembles his old team in a last ditch effort to survive and uncover his assailants.
Extras:

Red VFX (10:45)
 Deleted and Extended Scenes (08:45)

Extras Info:

Size: 138 MiB
 Video: AVC | 1280 x 720 | 800 Kbps | 23.976 FPS | 16:9
 Audio : English | 192 Kbps | 2ch | AC3
 Runtime: 19mn 30sec
 Subtitles: English


RED 2 (2013) @PerfectHDMovies

RED 2 (2013)

Release Info:
Release Name: RED 2 (2013)
 Size: 1.97 GiB
 Video: AVC | 1920 x 800 | 2000 Kbps | 23.976 FPS | 2.40:1
 Audio 1: English | 224 Kbps | 6ch | AC3
 Audio 2: Hindi | 224 Kbps | 6ch | AC3
 Runtime: 01h 55mn 49sec
 Subtitles: None
 Source: BluRay.PublicHD / ~HI-Man

IMDB Info:
Name: RED 2 (2013)
 Genre: Action | Comedy | Crime
 IMDB: http://www.imdb.com/title/tt1821694/
 IMDB Rating: 6.7/10 from 84,442 users
 Director: Dean Parisot
 Writers: Jon Hoeber, Erich Hoeber
 Cast: Bruce Willis, Helen Mirren, John Malkovich
 Plot: Retired C.I.A. agent Frank Moses reunites his unlikely team of elite operatives
 for a global quest to track down a missing portable nuclear device.

Extras:
Behind the Scenes (34:40)
 Deleted Scenes (04:24)
 Gag Reel (04:24)

Extras Info:

Size: 329 MiB
 Video: AVC | 1280 x 720 | 800 Kbps | 23.976 FPS | 16:9
 Audio : English | 256 Kbps | 2ch | AC3
 Runtime: 42mn 28sec
 Subtitles: None

wll99I6.jpg 9431I1D.jpg gjuf1KE.jpg Vybx3kj.jpg


RED (2010)

 

Extras

 

*
 
 

RED 2 (2013)

LETWATACH
*
*
*
*
*

 

Extras

*