Category Archives: Bollywood Blu-Ray 1080p

Madaari(2016) 1080p BDRip-X264 AC3 5.1 E.Subs[Team ExDR] 4.3GB

Madaari(2016) 1080p BDRip-X264 AC3 5.1 E.Subs[Team ExDR] 4.3GB

Madaari(2016) 1080p BDRip-X264 AC3 5.1 E.Subs[Team ExDR] 4.3GB

Genre............: Adventure, Crime, Drama  
Year.............: 2016
IMDb Link........: http://www.imdb.com/title/tt5713232/


Source...........: [email protected]
Size.............: 4.37 GB
Ripper...........: Dr.No
Length...........: 02h 13 mins  


Audio Language...: Hindi
Audio............: AC3 5.1 @ 640 Kbps[Untouched]
Subtitles........: English[SRT Muxed]
Video............: X264 @ 4039 Kbps
Aspect...........: 1920X800 @ 24 fps
Sample...........: https://www.sendspace.com/file/pt9v0m

ss

Housefull.3.2016.1080p.BRRip.x264.Hindi.AAC-ETRG 1.97 GB

Housefull.3.2016.1080p.BRRip.x264.Hindi.AAC-ETRG

Housefull.3.2016.1080p.BRRip.x264.Hindi.AAC-ETRG

53b1a870a9515.png

A father doesn't want his three daughters to get married. Now, it's up to three men to try to and convince the father that they're a good fit for his daughters.

53b1a87122294.png

Nargis Fakhri :... Saraswati
Akshay Kumar :... Sandy AKA Sundi
Jacqueline Fernandez :... Ganga
Abhishek Bachchan :... Bunty


53b1a87034fbd.jpg

Video:-

Format : MP4 / x264 / [email protected]
Duration : 02:14:21 
Bitrate : 2000 Kbps 
Resolution = (Width/Height) : 1920x804 pixels 
Frame Rate : 24 fps

Audio:-

Format : AAC
Bitrate : 96 Kbps
Channels : 2 Channels
Sample Rate : 48 KHz
Language : Hindi

Release info:-

Encoded/Released By : Ozlem / ETRG
Title/Year : Housefull 3 / 2016 
File Size : 1.96 GiB
Genre : Action, Comedy, Romance
Source : Housefull.3.2016.1080p.BluRay.DD5.1.x264-EPiC (Thank You)
Subtitles : N/A 
IMDB : http://www.imdb.com/title/tt4559046/

53b1a86f7b04a.png

Housefull.3.2016.1080p.BRRip.x264.Hindi.AAC-ETRGHousefull.3.2016.1080p.BRRip.x264.Hindi.AAC-ETRGHousefull.3.2016.1080p.BRRip.x264.Hindi.AAC-ETRGHousefull.3.2016.1080p.BRRip.x264.Hindi.AAC-ETRG

ss

wo

*
*
FLASHSX
*
LETWATCH
dl

Housefull-3 (2016) 1080p Blu-ray x264 AC3 5.1 Subs -DDR 4.36GB

Housefull-3 (2016) 1080p Blu-ray x264 AC3 5.1 Subs -DDR 4.36GB

Housefull-3 (2016) 1080p Blu-ray x264 AC3 5.1 Subs -DDR 4.36GB

Source = Blu-Ray BD50 @ DDR

Format : Matroska
Format version : Version 4 / Version 2
File size : 4.36 GiB
Duration : 2 h 14 min
Overall bit rate : 4 649 kb/s


Video
ID : 1
Format : AVC
Format/Info : Advanced Video Codec
Format profile : [email protected]
Format settings, CABAC : Yes
Format settings, ReFrames : 5 frames
Codec ID : V_MPEG4/ISO/AVC
Duration : 2 h 14 min
Bit rate : 4 000 kb/s
Width : 1 920 pixels
Height : 804 pixels
Display aspect ratio : 2.40:1
Frame rate mode : Constant
Frame rate : 24.000 FPS
Color space : YUV
Chroma subsampling : 4:2:0
Bit depth : 8 bits
Scan type : Progressive
Bits/(Pixel*Frame) : 0.108
Stream size : 3.75 GiB (86%)
Default : Yes
Forced : No
Color range : Limited
Color primaries : BT.709
Transfer characteristics : BT.709
Matrix coefficients : BT.709

Audio
ID : 2
Format : AC-3
Format/Info : Audio Coding 3
Mode extension : CM (complete main)
Format settings, Endianness : Big
Codec ID : A_AC3
Duration : 2 h 14 min
Bit rate mode : Constant
Bit rate : 640 kb/s
Channel(s) : 6 channels
Channel positions : Front: L C R, Side: L R, LFE
Sampling rate : 48.0 kHz
Frame rate : 31.250 FPS (1536 spf)
Compression mode : Lossy
Stream size : 615 MiB (14%)
Language : Hindi
Default : Yes
Forced : No
 
 Housefull-3 (2016) 1080p Blu-ray x264 AC3 5.1 Subs -DDR 4.36GB Housefull-3 (2016) 1080p Blu-ray x264 AC3 5.1 Subs -DDR 4.36GB Housefull-3 (2016) 1080p Blu-ray x264 AC3 5.1 Subs -DDR 4.36GB

LETWATCH
*
VODLOCKER
*
USERSFILES
*
*
*
*
 

 

RAMAN RAGHAV (2016) – Blu-Ray – 1080p – x264 – DTS 5.1 – MSubs – ChapS DrC [7th Ann] 4.37GB

RAMAN RAGHAV (2016) - Blu-Ray - 1080p - x264 - DTS 5.1 - MSubs - ChapS DrC [7th Ann] 4.37GB

RAMAN RAGHAV (2016) – Blu-Ray – 1080p – x264 – DTS 5.1 – MSubs – ChapS DrC [7th Ann] 4.37GB

Year.............: 2016
IMDB Link......: http://www.imdb.com/title/tt5662932/
Genre............: Crime | Drama | Thriller
Cast.............: Nawazuddin Siddiqui | Vicky Kaushal

Source..........: BD 50 DDR
Ripper...........: FrostSchutz
Rip Size.........: 4.37 GB 
Runtime........: 2 Hours 14 Minutes

Codec............: x264 - 2 Pass 
Container........: MKV
Resolution.......: 1920x816
Aspect Ratio.....: 2.35:1
Video Bitrate....: 3179 Kbps
Audio Language...: Hindi
Audio Codec......: Digital Theatre Systems (DTS)
Subtitles.........: English | Arabic | French | German | Italian | Portuguese | Spanish
Audio............: Digital Theatre Systems (DTS) - 755 Kbps 5.1 Channel.
Framerate........: 24Fps

 
RAMAN RAGHAV (2016) - Blu-Ray - 1080p - x264 - DTS 5.1 - MSubs - ChapS DrC [7th Ann] 4.37GBRAMAN RAGHAV (2016) - Blu-Ray - 1080p - x264 - DTS 5.1 - MSubs - ChapS DrC [7th Ann] 4.37GBRAMAN RAGHAV (2016) - Blu-Ray - 1080p - x264 - DTS 5.1 - MSubs - ChapS DrC [7th Ann] 4.37GB

LETWATCH
*
VODLOCKER
*
USERSFILES
*
*
MULTIUP
*
JHEBERG
*
GO4UP