Category Archives: Hollywood Movies Hindi Audios

Krampus (2015) Hindi Audio (Blu-ray) DD 5.1 640 Kbps ~ PyZ – 446 MB

Krampus (2015) 720p BluRay Hindi DD5.1Ch Org ~ PyZ - PerfectHDMovies

Krampus (2015) Hindi Audio (Blu-ray) DD 5.1 640 Kbps ~ PyZ

 

Language…………….: Hindi [BluRay 50]
 Audio Format…………: AC-3
 Bitrate……………..: 640 Kbps
 Channels…………….: Dolby Digital 5.1Ch BluRay ~ PyZ
 Channel positions…….: Front: L C R, Side: L R, LFE
 Sampling rate………..: 48,000
 Bit depth……………: 16 bits
 Stream size………….: 446 MB

Star Wars Episode VII – The Force Awakens (2015) Hindi Audio (Blu-ray) DD 5.1 640 Kbps ~ PyZ

Language…………….: Hindi [BluRay 50]
Audio Format…………: AC-3
Bitrate……………..: 640 Kbps
Channels…………….: Dolby Digital 5.1Ch BluRay ~ PyZ
Channel positions…….: Front: L C R, Side: L R, LFE
Sampling rate………..: 48,000
Bit depth……………: 16 bits
Stream size………….: 632 MB

Star Wars Episode VII – The Force Awakens (2015) Hindi Audio BD 5.1 640 Kbps – PyZ – 632 MB

Star Wars Episode VII - The Force Awakens (2015) Hindi Audio (Blu-ray) DD 5.1 640 Kbps

Star Wars Episode VII – The Force Awakens (2015) Hindi Audio (Blu-ray) DD 5.1 640 Kbps

Audio 1
=======
Language…………….: Hindi [BluRay 50]
Audio Format…………: AC-3
Bitrate……………..: 640 Kbps
Channels…………….: Dolby Digital 5.1Ch BluRay ~ PyZ
Channel positions…….: Front: L C R, Side: L R, LFE
Sampling rate………..: 48,000
Bit depth……………: 16 bits
Stream size………….: 632 MB

Casino Royale (2006) 448 Kbps 6CH Only Hindi Audio

Perfect Sync - 23.976 fps any copies
Audio
Format : AC-3
Format/Info : Audio Coding 3
Mode extension : CM (complete main)
Duration : 2h 24mn
Bit rate mode : Constant
Bit rate : 448 Kbps
Channel(s) : 6 channels
Channel positions : Front: L C R, Side: L R, LFE
Sampling rate : 48.0 KHz
Bit depth : 16 bits
Compression mode : Lossy
Stream size : 463 MiB (100%)
LETWATACH
*
VODLOCKER
*
*
*
*
*
 

 

High Kick Girl (2009) HinDi Audio @224kbps Perfect Sync @23,976 FPS – monu987

High Kick Girl (2009) HinDi Audio @224kbps Perfect Sync @23,976 FPS – monu987

Audio #1
ID : 2
Format : AC-3
Format/Info : Audio Coding 3
Mode extension : CM (complete main)
Format settings, Endianness : Big
Codec ID : A_AC3
Duration : 1h 21mn
Bit rate mode : Constant
Bit rate : 224 Kbps
Channel(s) : 2 channels
Channel positions : Front: L R
Sampling rate : 48.0 KHz
Bit depth : 16 bits
Compression mode : Lossy
Stream size : 131 MiB (6%)
Title : monu987
Language : Hindi
Default : Yes
Forced : Yes


-----------------------------------------------------------
Note: Hindi Audio Source By Poster
Provided By Sadhu's HD
-----------------------------------------------------------

*
*
*
 

*
*
*
 

Apartment 1303 (2012) HinDi Audio @192kbps Perfect Synced @23,976 FPS ~ David+ monu987

MV5BMjAxMDc2NTk2N15BMl5BanBnXkFtZTcwMDQzMTI2OA._V1_SX640_SY720_


Audio
 Format : AC-3
Duration : 1h 25mn
Bit rate mode : Constant
Bit rate : 192 Kbps
Channel(s) : 2 channels
Channel positions : Front: L R
Sampling rate : 48.0 KHz
Language : HinDi

-----------------------------------------------------------
Note: Hindi Audio Source By David
Perfect Sync By Monu + David
-----------------------------------------------------------


*
*

Catwoman (2004) Org HinDi Audio @224kbps 23.976 Perfect sync vcd own Sj – 167 MB

Catwoman (2004) Org HinDi Audio @224kbps 23.976 Perfect sync vcd own Sj

Audio
Format : MPEG Audio
Format version : Version 1
Format profile : Layer 3
Mode : Joint stereo
Mode extension : MS Stereo
Codec ID : A_MPEG/L3
Codec ID/Hint : MP3
Duration : 1h 44mn
Bit rate mode : Constant
Bit rate : 224 Kbps
Channel(s) : 2 channels
Sampling rate : 44.1 KHz
Compression mode : Lossy
Stream size : 167 MiB (100%)
Language : HinDi
*
*

USERSCLOUD
*
*
*
*
*

Backwoods (2008) Hindi Audio 2.0 CH ~ -=!Dr.STAR!=- 81.7 MB

Backwoods_2008_Cover.jpg

 

Backwoods (2008) Hindi Audio 2.0 CH ~ -=!Dr.STAR!=-

::::Info::::

Audio #1
ID : 2
Format : MPEG Audio
Codec ID : A_MPEG/L3
Codec ID/Hint : MP3
Duration : 1h 30mn
Bit rate mode : Constant
Bit rate : 128 Kbps
Channel(s) : 2 channels
Sampling rate : 48.0 KHz
Title : -=!Dr.STAR!=-
Language : Hindi

--------------------------------------
Note: Hindi Audio Credit By Dr.Star
Perfect Sync By Dr.Star
It's An Indian Dubbing 😀
----------------------------------------
*
*
*
*
*
*
*
*
 

 

The Lair of the White Worm (1988) Hindi Audio 2.0 CH ~ -=!Dr.STAR!= 128 MB

The Lair of the White Worm (1988) Hindi Audio 2.0 CH ~ -=!Dr.STAR!=

Audio #1
ID : 2
Format : AC-3
Codec ID : A_AC3
Duration : 1h 33mn
Bit rate mode : Constant
Bit rate : 192 Kbps
Channel(s) : 2 channels
Channel positions : Front: L R
Sampling rate : 48.0 KHz
Title : -=!Dr.STAR!=-
Language : Hindi

The Hard Way (1991) Hindi DD 2.0 Audio By Monu ~ 178 MB

Posterf78be.jpg

The Hard Way (1991) Hindi DD 2.0 Audio By Monu

General
Format : Matroska
Format version : Version 4 / Version 2
File size : 178 MiB
Duration : 1h 50mn
Overall bit rate mode : Constant
Overall bit rate : 225 Kbps
Track name : The Hard Way (1991) - monu987

Audio
ID : 1
Format : AC-3
Format/Info : Audio Coding 3
Format profile : Dolby Digital
Mode extension : CM (complete main)
Format settings, Endianness : Big
Codec ID : A_AC3
Duration : 1h 50mn
Bit rate mode : Constant
Bit rate : 224 Kbps
Channel(s) : 2 channels
Channel positions : Front: L R
Sampling rate : 44.1 KHz
Frame rate : 28.711 fps (1536 spf)
Compression mode : Lossy
Stream size : 177 MiB (100%)
Title : monu987 @ www.PerfectHDMovies.com
Language : Hindi
Default : Yes
Forced : Yes

 
*
*
 
 -------------------------------------
Note: Hindi Audio Source By Vikas
Perfect Sync By Monu
---------------------------------------

 *

*
*

 

 

Shoot on Sight (2007) Hindi DD 2.0 Audio By Monu ~ 177 MB

Shoot on Sight (2007) Hindi DD 2.0 Audio By Monu

 

Shoot on Sight (2007) Hindi DD 2.0 Audio By Monu 

 

 

General
Format : Matroska
Format version : Version 4 / Version 2
File size : 177 MiB
Duration : 1h 50mn
Overall bit rate mode : Constant
Overall bit rate : 225 Kbps
Track name : Shoot on Sight (2007) - monu987
Encoded date : UTC 2016-03-13 14:10:28
Writing application : mkvmerge v8.8.0 ('Wind at my back') 64bit
Writing library : libebml v1.3.3 + libmatroska v1.4.4
Audio
ID : 1
Format : AC-3
Format/Info : Audio Coding 3
Format profile : Dolby Digital
Mode extension : CM (complete main)
Format settings, Endianness : Big
Codec ID : A_AC3
Duration : 1h 50mn
Bit rate mode : Constant
Bit rate : 224 Kbps
Channel(s) : 2 channels
Channel positions : Front: L R
Sampling rate : 44.1 KHz
Frame rate : 28.711 fps (1536 spf)
Compression mode : Lossy
Stream size : 176 MiB (100%)
Title : monu987 @ www.PefectHDMovies.com
Language : Hindi
Default : Yes
Forced : Yes


--------------------------------------------
Note: Hindi Audio Source By Radhanpuri Abdul
Perfect Sync By Monu
--------------------------------------------- 
 
 
*
*
*
 
 
*
*
*
*
*
 
 
 
 
 

 

 

The Princess and the Frog (2009) Hindi Audio 2.0CH Perfect Sync (23.976 Fps) Sj

The Princess and the Frog Perfect Sync (23.976 Fps) Sj @ PerfectHDMovies

The Princess and the Frog (2009) Hindi Audio 2.0CH Perfect Sync (23.976 Fps) Sj

Audio:# 1
Format : AC-3
Format/Info : Audio Coding 3
Format profile : Dolby Digital
Mode extension : CM (complete main)
Format settings, Endianness : Big
Duration : 1h 37mn
Bit rate mode : Constant
Bit rate : 224 Kbps
Channel(s) : 2 channels
Channel positions : Front: L R
Sampling rate : 48.0 KHz
Frame rate : 31.250 fps (1536 spf)
Compression mode : Lossy
Stream size : 156 MiB (100%)

*
*
------------------------------------------------------
This Audio Is Fully Compatible With RunTime 01.37.27
Sync Tested - YES TESTED ON 1080p LCHD
Hindi Audio Source By ‎Shawn James‎ 
------------------------------------------------------

*

*

Getaway (2013) Perfect Synced Hindi Audio 23,976FPS – David + monu987 ~ 122 MB

Getaway (2013) Perfect Synced Hindi Audio 23,976FPS - David + monu987 @ PerfectHDMovies

 

Getaway (2013) Perfect Synced Hindi Audio 23,976FPS – David + monu987

 

Audio #1
ID : 2
Format : AC-3
Format/Info : Audio Coding 3
Format profile : Dolby Digital
Mode extension : CM (complete main)
Format settings, Endianness : Big
Codec ID : A_AC3
Duration : 1h 30mn
Bit rate mode : Constant
Bit rate : 192 Kbps
Channel(s) : 2 channels
Channel positions : Front: L R
Sampling rate : 48.0 KHz
Bit depth : 16 bits
Compression mode : Lossy
Stream size : 124 MiB (9%)
Title : monu987
Language : Hindi
Default : Yes
Forced : Yes

-----------------------------------------
Note: Hindi Audio Source By David
Perfect Sync By Monu
------------------------------------------

 *

*

*

*
*
*
*
*
 

Hellboy II – The Golden Army (2008) 1080p BluRay x264 Dual Audio [English 5.1 + Hindi 5.1] – TBI

mv5bmja5nzgymjc2nl5bml5banbnxkftztcwotu3mdi3mq-_v1_ux182_cr00182268_al_

 

 

Hellboy II – The Golden Army (2008) 1080p BluRay x264 Dual Audio [English 5.1 + Hindi 5.1] – TBI

 

Release Info:

Release Name: Hellboy II - The Golden Army (2008)
Size: 2.04 GiB
Video: AVC | 1920 x 1040 | 2000 Kbps | 23.976 FPS | 1.85:1
Audio 1: English | 224 Kbps | 6ch | AC3
Audio 2: Hindi | 224 Kbps | 6ch | AC3
Runtime: 01h 59mn 41sec
Subtitles: No
Source: BDRip DTS-HD MA 5.1-HighCode / Own DVD

IMDB Info:

Name: Hellboy II: The Golden Army (2008)
Genre: Action | Adventure | Fantasy
IMDB: http://www.imdb.com/title/tt0411477/
IMDB Rating: 7.1/10 from 176,842 users
Director: Guillermo del Toro
Writers: Guillermo del Toro (screenplay), Guillermo del Toro (story)
Cast: Ron Perlman, Selma Blair, Doug Jones
Plot: The mythical world starts a rebellion against humanity in order to rule the
Earth, so Hellboy and his team must save the world from the rebellious creatures.





Screenshots:
 
 A5Zzqjd.jpgDSsFyvp.jpg
1aXshjn.jpgr7GLEyg.jpg
RL6CpyD.jpgWItHVOl.jpg
iT376wZ.jpgY7Rc8An.jpg



 

 

 

*

 

 

*
*
*
*
*