Remember Me
A password will be e-mailed to you.
Please enter your username or email address. You will receive a link to create a new password via email.
Cancel
PerfectHDMovies.me

Captain America Civil War 2016 HDCAM x264 Exclusive 1.86 GiB

Captain America: Civil War    

PG-13 146 min HollywoodHollywood Pre-Releases (Latest)

8.2
IMDB: 8.2/10 6,493 votes

,

, , ,

N/A

USA

Report error

Captain America Civil War 2016 HDCAM x264 Exclusive - PerfectHDMovies

Captain America Civil War 2016 HDCAM x264-Exclusive

Format                      : Matroska
Format version              : Version 4 / Version 2
File size                   : 1.86 GiB
Duration                    : 2h 17mn
Overall bit rate            : 1 925 Kbps
Encoded date                : UTC 2016-05-02 16:28:34
Writing application         : mkvmerge v9.0.1 ('Obstacles') 32bit
Writing library             : libebml v1.3.3 + libmatroska v1.4.4

Video
ID                          : 1
Format                      : AVC
Format/Info                 : Advanced Video Codec
Format profile              : [email protected]
Format settings, CABAC      : Yes
Format settings, ReFrames   : 4 frames
Codec ID                    : V_MPEG4/ISO/AVC
Duration                    : 2h 17mn
Bit rate                    : 1 800 Kbps
Width                       : 720 pixels
Height                      : 400 pixels
Display aspect ratio        : 16:9
Frame rate mode             : Constant
Frame rate                  : 29.970 (30000/1001) fps
Color space                 : YUV
Chroma subsampling          : 4:2:0
Bit depth                   : 8 bits
Scan type                   : Progressive
Bits/(Pixel*Frame)          : 0.209
Stream size                 : 1.73 GiB (93%)

Audio
ID                          : 2
Format                      : AAC
Format/Info                 : Advanced Audio Codec
Format profile              : LC
Codec ID                    : A_AAC
Duration                    : 2h 17mn
Bit rate                    : 132 Kbps
Channel(s)                  : 2 channels
Channel positions           : Front: L R
Sampling rate               : 44.1 KHz
Frame rate                  : 43.066 fps (1024 spf)
Compression mode            : Lossy
Delay relative to video     : 800ms
Stream size                 : 129 MiB (7%)
Default                     : Yes
Forced                      : No
No links available
No downloads available

Genres

Related movies

Watch Dragon ball super