Remember Me
A password will be e-mailed to you.
Please enter your username or email address. You will receive a link to create a new password via email.
Cancel
PerfectHDMovies.me
480pDual Bluray Captain America Civil War (2016) Dual Audio (Hindi Cam + English) BRRip 480p – PerfectHDMovies
Report error

Captain America Civil War (2016) Dual Audio (Hindi Cam + English) BRRip 480p – PerfectHDMovies

Captain America: Civil War    

PG-13 147 min Dual AudioDual Audio 300MB Movies

8.2
IMDB: 8.2/10 285,911 votes

,

, , ,

2 wins & 7 nominations.

USA, Germany

Report error

Captain America Civil War (2016) Dual Audio (Hindi Cam + English) BRRip 480p - PerfectHDMovies

Captain America Civil War (2016) Dual Audio {Hindi Cleaned + English} BRRip 480p – PerfectHDMovies

Format : Matroska
 Format version : Version 4 / Version 2
 File size : 460 MiB
 Duration : 2 h 27 min
 Overall bit rate : 436 kb/s
 Movie name : Captain America Civil War (2016) Dual Audio {Hindi Cleaned + English} BRRip 480p - PerfectHDMovies
 Encoded date : UTC 2016-08-30 17:39:17
 Writing application : mkvmerge v9.4.0 ('Knurl') 32bit
 Writing library : libebml v1.3.4 + libmatroska v1.4.5

Video
 ID : 1
 Format : AVC
 Format/Info : Advanced Video Codec
 Format profile : [email protected]
 Format settings, CABAC : Yes
 Format settings, ReFrames : 4 frames
 Codec ID : V_MPEG4/ISO/AVC
 Duration : 2 h 27 min
 Bit rate : 370 kb/s
 Width : 720 pixels
 Height : 302 pixels
 Display aspect ratio : 2.40:1
 Frame rate mode : Constant
 Frame rate : 23.976 (24000/1001) FPS
 Color space : YUV
 Chroma subsampling : 4:2:0
 Bit depth : 8 bits
 Scan type : Progressive
 Bits/(Pixel*Frame) : 0.071
 Stream size : 391 MiB (85%)
 Writing library : x264 core 142 r2479 dd79a61
 Default : Yes
 Forced : No
 Color range : Limited
 Color primaries : BT.709
 Transfer characteristics : BT.709
 Matrix coefficients : BT.709

Audio #1
 ID : 2
 Format : AAC
 Format/Info : Advanced Audio Codec
 Format profile : HE-AAC / LC
 Codec ID : A_AAC
 Duration : 2 h 27 min
 Bit rate : 32.0 kb/s
 Channel(s) : 2 channels
 Channel positions : Front: L R
 Sampling rate : 22.05 kHz / 11.025 kHz
 Frame rate : 10.767 FPS (1024 spf)
 Compression mode : Lossy
 Delay relative to video : -229 ms
 Stream size : 33.8 MiB (7%)
 Title : PHDM
 Language : Hindi
 Default : Yes
 Forced : No

Audio #2
 ID : 3
 Format : AAC
 Format/Info : Advanced Audio Codec
 Format profile : HE-AAC / LC
 Codec ID : A_AAC
 Duration : 2 h 27 min
 Bit rate : 32.0 kb/s
 Channel(s) : 2 channels
 Channel positions : Front: L R
 Sampling rate : 22.05 kHz / 11.025 kHz
 Frame rate : 10.767 FPS (1024 spf)
 Compression mode : Lossy
 Delay relative to video : -229 ms
 Stream size : 33.8 MiB (7%)
 Title : PHDM
 Language : English
 Default : No
 Forced : No

Text
 ID : 4
 Format : UTF-8
 Codec ID : S_TEXT/UTF8
 Codec ID/Info : UTF-8 Plain Text
 Duration : 2 h 27 min
 Bit rate : 49 b/s
 Count of elements : 1576
 Stream size : 53.6 KiB (0%)
 Default : Yes
 Forced : No

No links available
No downloads available

Genres

Related movies

Watch Dragon ball super