Remember Me
A password will be e-mailed to you.
Please enter your username or email address. You will receive a link to create a new password via email.
Cancel
PerfectHDMovies.me

Captain America Civil War (2016) 720p BluRay x264 [Dual-Audio][English DD 5.1 + Hindi DD 5.1] – Mafiaking – M2Tv – 1.42 GB

Captain America: Civil War    

PG-13 147 min Dual AudioDual Audio Blu-Ray 720p

8.2
IMDB: 8.2/10 285,911 votes

,

, , ,

2 wins & 7 nominations.

USA, Germany

Report error

Captain America Civil War (2016) 720p BluRay x264 [Dual-Audio][English DD 5.1 + Hindi DD 5.1] - Mafiaking - M2Tv

Captain America Civil War (2016) 720p BluRay x264 [Dual-Audio][English DD 5.1 + Hindi DD 5.1] – Mafiaking – M2Tv

Captain America Civil War (2016) 720p BluRay x264 [Dual-Audio][English DD 5.1 + Hindi DD 5.1] – Mafiaking – M2Tv

General
Format : Matroska
Format version : Version 4 / Version 2
File size : 1.42 GiB
Duration : 2 h 27 min
Overall bit rate : 1 374 kb/s

Video
ID : 1
Format : AVC
Format/Info : Advanced Video Codec
Format profile : [email protected]
Format settings, CABAC : Yes
Format settings, ReFrames : 3 frames
Codec ID : V_MPEG4/ISO/AVC
Duration : 2 h 27 min
Bit rate : 925 kb/s
Width : 1 280 pixels
Height : 536 pixels
Display aspect ratio : 2.40:1
Frame rate mode : Constant
Frame rate : 23.976 (24000/1001) FPS
Color space : YUV
Chroma subsampling : 4:2:0
Bit depth : 8 bits
Scan type : Progressive
Bits/(Pixel*Frame) : 0.056
Stream size : 976 MiB (67%)
Title : Mafiaking
Language : English
Default : Yes
Forced : No

Audio #1
ID : 2
Format : AC-3
Format/Info : Audio Coding 3
Mode extension : CM (complete main)
Format settings, Endianness : Big
Codec ID : A_AC3
Duration : 2 h 27 min
Bit rate mode : Constant
Bit rate : 224 kb/s
Channel(s) : 6 channels
Channel positions : Front: L C R, Side: L R, LFE
Sampling rate : 48.0 kHz
Frame rate : 31.250 FPS (1536 spf)
Compression mode : Lossy
Stream size : 237 MiB (16%)
Title : Mafiaking
Language : Hindi
Default : Yes
Forced : No

Audio #2
ID : 3
Format : AC-3
Format/Info : Audio Coding 3
Mode extension : CM (complete main)
Format settings, Endianness : Big
Codec ID : A_AC3
Duration : 2 h 27 min
Bit rate mode : Constant
Bit rate : 224 kb/s
Channel(s) : 6 channels
Channel positions : Front: L C R, Side: L R, LFE
Sampling rate : 48.0 kHz
Frame rate : 31.250 FPS (1536 spf)
Compression mode : Lossy
Stream size : 237 MiB (16%)
Title : Mafiaking
Language : English
Default : No
Forced : No
*
*
*
Captain America Civil War (2016) 720p BluRay x264 [Dual-Audio][English DD 5.1 + Hindi DD 5.1] - Mafiaking - M2Tv
Captain America Civil War (2016) 720p BluRay x264 [Dual-Audio][English DD 5.1 + Hindi DD 5.1] - Mafiaking - M2Tv
Captain America Civil War (2016) 720p BluRay x264 [Dual-Audio][English DD 5.1 + Hindi DD 5.1] - Mafiaking - M2Tv
*
*
*
—————-
 —————-
LETWATACH
*
*
*
*
*
*
GO4UP 
 

 

No links available
No downloads available

Genres

Related movies

Watch Dragon ball super