Remember Me
A password will be e-mailed to you.
Please enter your username or email address. You will receive a link to create a new password via email.
Cancel
PerfectHDMovies.me

Blood In The Water 2016 720p WEB-DL x264 AAC-[eSc] 810MB

Pacific Standard Time    

N/A 91 min HollywoodHollywood WEB-DL 720p

N/A
IMDB: N/A/10 N/A votes

,

, , ,

N/A

USA

Report error

Blood In The Water 2016 720p WEB-DL x264 AAC-[eSc] 810MB

Blood In The Water 2016 720p WEB-DL x264 AAC-[eSc] 810MB

Video
ID : 1
Format : AVC
Format/Info : Advanced Video Codec
Format profile : [email protected]
Format settings, CABAC : Yes
Format settings, ReFrames : 8 frames
Codec ID : avc1
Codec ID/Info : Advanced Video Coding
Duration : 1 h 31 min
Bit rate : 1 100 kb/s
Width : 1 280 pixels
Height : 528 pixels
Display aspect ratio : 2.40:1
Frame rate mode : Variable
Frame rate : 23.976 FPS
Minimum frame rate : 11.989 FPS
Maximum frame rate : 23.981 FPS
Color space : YUV
Chroma subsampling : 4:2:0
Bit depth : 8 bits
Scan type : Progressive
Bits/(Pixel*Frame) : 0.068
Stream size : 723 MiB (89%)
Writing library : x264 core 142 r2479 dd79a61

Encoded date : UTC 2016-08-28 17:04:46
Tagged date : UTC 2016-08-28 17:04:46
Color range : Limited
Color primaries : BT.709
Transfer characteristics : BT.709
Matrix coefficients : BT.709
Menus : 4

Audio
ID : 2
Format : AAC
Format/Info : Advanced Audio Codec
Format profile : LC
Codec ID : 40
Duration : 1 h 31 min
Bit rate mode : Variable
Bit rate : 126 kb/s
Channel(s) : 2 channels
Channel positions : Front: L R
Sampling rate : 48.0 kHz
Frame rate : 46.875 FPS (1024 spf)
Compression mode : Lossy
Stream size : 82.7 MiB (10%)
Title : Stereo / Stereo
Language : English
Default : Yes
Alternate group : 1
Encoded date : UTC 2016-08-28 17:04:46
Tagged date : UTC 2016-08-28 17:04:46
Menus : 4

Text
ID : 3
Format : Timed Text
Muxing mode : sbtl
Codec ID : tx3g
Duration : 1 h 26 min
Bit rate mode : Variable
Bit rate : 102 b/s
Stream size : 65.1 KiB (0%)
Language : English
Default : Yes
Forced : No
Alternate group : 3
Encoded date : UTC 2016-08-28 17:04:46
Tagged date : UTC 2016-08-28 17:04:46
Menus : 4

Menu
ID : 4
Codec ID : text
Duration : 1 h 31 min
Language : English
Encoded date : UTC 2016-08-28 17:04:46
Tagged date : UTC 2016-08-28 17:04:46
Menu For : 1,2,3
00:00:00.000 : Opening Sequence
00:07:31.410 : Don't Answer That
00:12:48.352 : Everything's Gonna Be Fine
00:22:20.382 : What Happened In College?
00:28:39.344 : Where My Partners Live
00:35:29.296 : Just Hanging Out
00:40:11.328 : What's In The Bag?
00:45:07.374 : Number One Son
00:50:01.335 : A Good Nose Feel
00:55:05.305 : Relax Bro
00:59:40.330 : Enough Is Enough
01:04:59.358 : He's A Trooper
01:10:36.361 : Who's Following Me?
01:15:19.436 : The Blues
01:20:29.371 : Pool Fight
01:27:19.364 : End Credits
Bit rate mode : VBR

   
Blood In The Water 2016 720p WEB-DL x264 AAC-[eSc] 810MB
Blood In The Water 2016 720p WEB-DL x264 AAC-[eSc] 810MBBlood In The Water 2016 720p WEB-DL x264 AAC-[eSc] 810MB

*
*
*
MULTIUP
*
*
GO4UP 
 

 

No links available
No downloads available

Genres

Related movies

Watch Dragon ball super