Remember Me
A password will be e-mailed to you.
Please enter your username or email address. You will receive a link to create a new password via email.
Cancel
PerfectHDMovies.me

Biriyani 2013 UNCUT BluRay 480p Dual Audio Hindi Tamil PerfectHDMovies – 457 MB

Biriyani    

N/A 148 min Dual AudioDual Audio 300MB Movies

5.9
IMDB: 5.9/10 815 votes

, , ,

N/A

India

Report error

Biriyani 2013 UNCUT BluRay 480p Dual Audio Hindi Tamil PerfectHDMovies

Format : Matroska
Format version : Version 4 / Version 2
File size : 457 MiB
Duration : 2 h 26 min
Overall bit rate : 436 kb/s

Video
ID : 1
Format : AVC
Format/Info : Advanced Video Codec
Format profile : [email protected]
Format settings, CABAC : Yes
Format settings, ReFrames : 4 frames
Codec ID : V_MPEG4/ISO/AVC
Duration : 2 h 26 min
Bit rate : 370 kb/s
Width : 720 pixels
Height : 306 pixels
Display aspect ratio : 2.35:1
Frame rate mode : Constant
Frame rate : 23.976 (24000/1001) FPS
Color space : YUV
Chroma subsampling : 4:2:0
Bit depth : 8 bits
Scan type : Progressive
Bits/(Pixel*Frame) : 0.070
Stream size : 388 MiB (85%)
Writing library : x264 core 142 r2479 dd79a61
Default : Yes
Forced : No
Color range : Limited

Audio #1
ID : 2
Format : AAC
Format/Info : Advanced Audio Codec
Format profile : HE-AAC / LC
Codec ID : A_AAC
Duration : 2 h 26 min
Bit rate : 32.0 kb/s
Channel(s) : 2 channels
Channel positions : Front: L R
Sampling rate : 22.05 kHz / 11.025 kHz
Frame rate : 10.767 FPS (1024 spf)
Compression mode : Lossy
Delay relative to video : -229 ms
Stream size : 33.6 MiB (7%)
Title : PerfectHDmovies
Language : Hindi
Default : Yes
Forced : No

Audio #2
ID : 3
Format : AAC
Format/Info : Advanced Audio Codec
Format profile : HE-AAC / LC
Codec ID : A_AAC
Duration : 2 h 26 min
Bit rate : 32.0 kb/s
Channel(s) : 2 channels
Channel positions : Front: L R
Sampling rate : 22.05 kHz / 11.025 kHz
Frame rate : 10.767 FPS (1024 spf)
Compression mode : Lossy
Delay relative to video : -229 ms
Stream size : 33.6 MiB (7%)
Title : PerfectHDmovies
Language : Tamil
Default : No
Forced : No

Menu
00:00:00.000 : :00:00:00.000
00:03:26.372 : :00:03:26.250
00:07:46.841 : :00:07:46.708
00:15:11.327 : :00:15:11.042
00:20:22.971 : :00:20:22.792
00:29:25.555 : :00:29:25.417
00:34:33.488 : :00:34:33.333
00:40:17.748 : :00:40:17.583
00:50:45.792 : :00:50:45.708
01:00:14.277 : :01:00:14.125
01:06:16.222 : :01:06:16.125
01:18:11.645 : :01:18:11.417
01:26:56.336 : :01:26:56.083
01:32:18.032 : :01:32:17.917
01:44:22.756 : :01:44:22.667
01:50:08.101 : :01:50:07.875
02:00:46.656 : :02:00:46.500
02:04:57.782 : :02:04:57.667
02:12:11.882 : :02:12:11.792
02:22:41.261 : :02:22:41.042 
No links available
No downloads available

Genres

Related movies

Watch Dragon ball super