Remember Me
A password will be e-mailed to you.
Please enter your username or email address. You will receive a link to create a new password via email.
Cancel
PerfectHDMovies.me

Ben-Hur 1959 Dual Audio Hindi 480p BluRay PHDM

Ben-Hur    

G 212 min Dual AudioDual Audio 300MB Movies

8.1
IMDB: 8.1/10 159,643 votes

, , ,

Won 11 Oscars. Another 16 wins & 13 nominations.

USA

Report error

Ben-Hur 1959 Dual Audio Hindi 480p BluRay PHDM

Format : Matroska
Format version : Version 4 / Version 2
File size : 677 MiB
Duration : 3 h 42 min
Overall bit rate : 426 kb/s

Video
ID : 1
Format : AVC
Format/Info : Advanced Video Codec
Format profile : [email protected]
Format settings, CABAC : Yes
Format settings, ReFrames : 4 frames
Codec ID : V_MPEG4/ISO/AVC
Duration : 3 h 42 min
Bit rate : 360 kb/s
Width : 720 pixels
Height : 262 pixels
Display aspect ratio : 2.748
Frame rate mode : Constant
Frame rate : 23.976 (24000/1001) FPS
Color space : YUV
Chroma subsampling : 4:2:0
Bit depth : 8 bits
Scan type : Progressive
Bits/(Pixel*Frame) : 0.080
Stream size : 573 MiB (85%)
Writing library : x264 core 142 r2479 dd79a61
Default : Yes
Forced : No
Color range : Limited

Audio #1
ID : 2
Format : AAC
Format/Info : Advanced Audio Codec
Format profile : HE-AAC / LC
Codec ID : A_AAC
Duration : 3 h 42 min
Bit rate : 32.0 kb/s
Channel(s) : 2 channels
Channel positions : Front: L R
Sampling rate : 22.05 kHz / 11.025 kHz
Frame rate : 10.767 FPS (1024 spf)
Compression mode : Lossy
Delay relative to video : -229 ms
Stream size : 50.9 MiB (8%)
Title : PHDM
Language : Hindi
Default : Yes
Forced : No

Audio #2
ID : 3
Format : AAC
Format/Info : Advanced Audio Codec
Format profile : HE-AAC / LC
Codec ID : A_AAC
Duration : 3 h 42 min
Bit rate : 32.0 kb/s
Channel(s) : 2 channels
Channel positions : Front: L R
Sampling rate : 22.05 kHz / 11.025 kHz
Frame rate : 10.767 FPS (1024 spf)
Compression mode : Lossy
Delay relative to video : -229 ms
Stream size : 50.9 MiB (8%)
Title : PHDM
Language : English
Default : No
Forced : No

Text
ID : 4
Format : UTF-8
Codec ID : S_TEXT/UTF8
Codec ID/Info : UTF-8 Plain Text
Duration : 3 h 31 min
Bit rate : 33 b/s
Count of elements : 1683
Stream size : 51.5 KiB (0%)
Default : Yes
Forced : No

No links available
No downloads available

Genres

Related movies

Watch Dragon ball super