Remember Me
A password will be e-mailed to you.
Please enter your username or email address. You will receive a link to create a new password via email.
Cancel
PerfectHDMovies.me

Be.Imaan.Love.2016.720p.DvdScr.x264.Aac.By.Sam 797 MiB

Beiimaan Love    

N/A N/A BollywoodBollywood Pre-Releases (Latest)

N/A
IMDB: N/A/10 N/A votes

, , ,

N/A

India

Report error

Be.Imaan.Love.2016.720p.DvdScr.x264.Aac.By.Sam

Be.Imaan.Love.2016.720p.DvdScr.x264.Aac.By.Sam

Source                      : Internet
 Format                      : Matroska
 Format version              : Version 4 / Version 2
 File size                   : 797 MiB
 Duration                    : 2 h 0 min
 Overall bit rate            : 925 kb/s
 Movie name                  : Be Imaan Love 2016 720p DvdScr x264 Aac By Sam
 Encoded date                : UTC 2016-10-14 14:45:24
 Writing application         : mkvmerge v8.1.0 ('Psychedelic Postcard') 32bit
 Writing library             : libebml v1.3.1 + libmatroska v1.4.2
 
 Video
 ID                          : 1
 Format                      : AVC
 Format/Info                 : Advanced Video Codec
 Format profile              : [email protected]
 Format settings, CABAC      : Yes
 Format settings, ReFrames   : 4 frames
 Codec ID                    : V_MPEG4/ISO/AVC
 Duration                    : 2 h 0 min
 Bit rate                    : 858 kb/s
 Width                       : 1 280 pixels
 Height                      : 544 pixels
 Display aspect ratio        : 2.35:1
 Frame rate mode             : Constant
 Frame rate                  : 29.970 (30000/1001) FPS
 Color space                 : YUV
 Chroma subsampling          : 4:2:0
 Bit depth                   : 8 bits
 Scan type                   : Progressive
 Bits/(Pixel*Frame)          : 0.041
 Stream size                 : 739 MiB (93%)
 Writing library             : x264 core 148 r2638 7599210
 Default                     : Yes
 Forced                      : No
 
 Audio
 ID                          : 2
 Format                      : AAC
 Format/Info                 : Advanced Audio Codec
 Format profile              : LC
 Codec ID                    : A_AAC
 Duration                    : 2 h 0 min
 Bit rate                    : 64.0 kb/s
 Channel(s)                  : 2 channels
 Channel positions           : Front: L R
 Sampling rate               : 48.0 kHz
 Frame rate                  : 46.875 FPS (1024 spf)
 Compression mode            : Lossy
 Stream size                 : 55.1 MiB (7%)
 Language                    : Hindi
 Default                     : Yes
 Forced                      : Yes

ss
Be.Imaan.Love.2016.720p.DvdScr.x264.Aac.By.Sam Be.Imaan.Love.2016.720p.DvdScr.x264.Aac.By.Sam Be.Imaan.Love.2016.720p.DvdScr.x264.Aac.By.SamSAMPLE

wo

VODLOCKER
*
*
FLASHSX
*
LETWATCH
dl
 
No links available
No downloads available

Genres

Related movies

Watch Dragon ball super