Remember Me
A password will be e-mailed to you.
Please enter your username or email address. You will receive a link to create a new password via email.
Cancel
PerfectHDMovies.me

Battleship [2012] 1080p BDRip x264 Hindi DD 5.1 Ch…Hon3y 3.59 GB

Battleship    

PG-13 131 min Dual AudioDual Audio Blu-Ray 1080p

5.9
IMDB: 5.9/10 196,619 votes

, , ,

3 wins & 14 nominations.

USA

Report error

General
Battleship [2012] 1080p BDRip x264 Hindi DD 5.1 Ch…Hon3y.mkv
Format : Matroska
Format version : Version 4 / Version 2
File size : 3.56 GiB
Duration : 2h 11mn
Overall bit rate : 3 881 Kbps
Movie name : JmD007
Encoded date : UTC 2016-03-11 10:09:14
Writing application : mkvmerge v7.2.0 (‘On Every Street’blnk.png 64bit built on Sep 13 2014 15:52:10
Writing library : libebml v1.3.0 + libmatroska v1.4.1
Attachements : taha4.png
DURATION : 02:11:13.280000000
NUMBER_OF_FRAMES : 246040
NUMBER_OF_BYTES : 440903680
_STATISTICS_WRITING_APP : mkvmerge v7.2.0 (‘On Every Street’blnk.png 64bit built on Sep 13 2014 15:52:10
_STATISTICS_WRITING_DATE_UTC : 2016-03-11 10:09:14
_STATISTICS_TAGS : BPS DURATION NUMBER_OF_FRAMES NUMBER_OF_BYTES

Video
ID : 1
Format : AVC
Format/Info : Advanced Video Codec
Format profile : [email protected]
Format settings, CABAC : Yes
Format settings, ReFrames : 4 frames
Codec ID : V_MPEG4/ISO/AVC
Duration : 2h 11mn
Bit rate : 3 431 Kbps
Width : 1 920 pixels
Height : 800 pixels
Display aspect ratio : 2.40:1
Frame rate mode : Constant
Frame rate : 23.976 fps
Color space : YUV
Chroma subsampling : 4:2:0
Bit depth : 8 bits
Scan type : Progressive
Bits/(Pixel*Frame) : 0.093
Stream size : 3.08 GiB (86%)
Title : JmD007
Writing library : x264 core 142 r2431 ac76440

Audio
ID : 2
Format : AC-3
Format/Info : Audio Coding 3
Mode extension : CM (complete main)
Format settings, Endianness : Big
Codec ID : A_AC3
Duration : 2h 11mn
Bit rate mode : Constant
Bit rate : 448 Kbps
Channel(s) : 6 channels
Channel positions : Front: L C R, Side: L R, LFE
Sampling rate : 48.0 KHz
Bit depth : 16 bits
Compression mode : Lossy
Stream size : 421 MiB (12%)
Title : JmD007
Language : Hindi
Default : Yes
Forced : No

*
*
*
*
No links available
No downloads available

Genres

Related movies

Watch Dragon ball super