Remember Me
A password will be e-mailed to you.
Please enter your username or email address. You will receive a link to create a new password via email.
Cancel
PerfectHDMovies.me

Batman Vs Superman Dawn of Justice 2016 THEATRICAL BluRay 1080p x264 Dual Audio Org Hindi-Eng AC3 5.1 Hon3y 3.48GB

Batman v Superman: Dawn of Justice    

PG-13 151 min Dual AudioDual Audio Blu-Ray 1080p

7.0
IMDB: 7.0/10 305,975 votes

, , ,

N/A

USA

Report error

Batman Vs Superman Dawn of Justice 2016 THEATRICAL BluRay 1080p x264 Dual Audio Org Hindi-Eng AC3 5.1...Hon3y

Batman Vs Superman Dawn of Justice 2016 THEATRICAL BluRay 1080p x264 Dual Audio Org Hindi-Eng AC3 5.1…Hon3y 3.48GB

Batman Vs Superman Dawn of Justice 2016 THEATRICAL BluRay 1080p x264 Dual Audio Org Hindi-Eng AC3 5.1...Hon3y

General
Format                      : Matroska
Format                      : Matroska
Format version              : Version 4 / Version 2
File size                   : 3.48 GiB
Duration                    : 2h 31mn
Overall bit rate            : 3 284 Kbps

Video
Format                      : AVC
Format/Info                 : Advanced Video Codec
Format profile              : [email protected]
Format settings, CABAC      : Yes
Format settings, ReFrames   : 5 frames
Codec ID                    : V_MPEG4/ISO/AVC
Duration                    : 2h 31mn
Bit rate                    : 2 379 Kbps
Width                       : 1 920 pixels
Height                      : 800 pixels
Display aspect ratio        : 2.40:1
Frame rate mode             : Constant
Frame rate                  : 23.976 (24000/1001) fps
Color space                 : YUV
Chroma subsampling          : 4:2:0
Bit depth                   : 8 bits
Scan type                   : Progressive
Bits/(Pixel*Frame)          : 0.065
Stream size                 : 2.52 GiB (84%)
Title                       : [email protected]

Hindi audio Credits : PyZ

Audio #1
Format                      : AC-3
Format/Info                 : Audio Coding 3
Mode extension              : CM (complete main)
Format settings, Endianness : Big
Codec ID                    : A_AC3
Duration                    : 2h 31mn
Bit rate mode               : Constant
Bit rate                    : 448 Kbps
Channel(s)                  : 6 channels
Channel positions           : Front: L C R, Side: L R, LFE
Sampling rate               : 48.0 KHz
Frame rate                  : 31.250 fps (1536 spf)
Compression mode            : Lossy
Stream size                 : 486 MiB (14%)
Title                       : [email protected]
Language                    : Hindi
Default                     : Yes

Audio #2
Format                      : AC-3
Format/Info                 : Audio Coding 3
Mode extension              : CM (complete main)
Format settings, Endianness : Big
Codec ID                    : A_AC3
Duration                    : 2h 31mn
Bit rate mode               : Constant
Bit rate                    : 448 Kbps
Channel(s)                  : 6 channels
Channel positions           : Front: L C R, Side: L R, LFE
Sampling rate               : 48.0 KHz
Frame rate                  : 31.250 fps (1536 spf)
Compression mode            : Lossy
Stream size                 : 486 MiB (14%)
Title                       : [email protected]
Language                    : English
Default                     : No

Subtitle Text
Format                      : PGS
Muxing mode                 : zlib
Codec ID                    : S_HDMV/PGS
Codec ID/Info               : Picture based subtitle format used on BDs/HD-DVDs
Duration                    : 2h 31mn
Bit rate                    : 7 675 bps
Count of elements           : 3074
Stream size                 : 8.31 MiB (0%)
Title                       : [email protected]
Language                    : English
Default                     : Yes

Chapter Menu
00:00:00.000                : en:00:00:00.000
00:09:50.048                : en:00:09:50.048
00:20:45.786                : en:00:20:45.786
00:29:58.672                : en:00:29:58.672
00:38:46.616                : en:00:38:46.616
00:49:25.921                : en:00:49:25.921
00:59:21.558                : en:00:59:21.558
01:10:06.202                : en:01:10:06.202
01:21:15.120                : en:01:21:15.120
01:30:00.312                : en:01:30:00.312
01:38:20.812                : en:01:38:20.812
01:49:57.382                : en:01:49:57.382
02:01:49.052                : en:02:01:49.052
02:10:40.416                : en:02:10:40.416
02:18:41.313                : en:02:18:41.313
02:23:50.372                : en:02:23:50.372
No links available
No downloads available

Genres

Related movies

Watch Dragon ball super