Remember Me
A password will be e-mailed to you.
Please enter your username or email address. You will receive a link to create a new password via email.
Cancel
PerfectHDMovies.me

Batman vs Superman – Dawn Of Justice (2016) 1080p Blu-ray Hindi AC3 5.1 Msubs – DDR 3.68GB

Batman v Superman: Dawn of Justice    

PG-13 151 min Dual AudioDual Audio Blu-Ray 1080p

7.0
IMDB: 7.0/10 305,975 votes

, , ,

N/A

USA

Report error

Batman vs Superman - Dawn Of Justice (2016) 1080p Blu-ray Hindi AC3 5.1 Msubs - DDR

Batman vs Superman – Dawn Of Justice (2016) 1080p Blu-ray Hindi AC3 5.1 Msubs – DDR 3.68GB

Batman vs Superman - Dawn Of Justice (2016) 1080p Blu-ray Hindi AC3 5.1 Msubs - DDR

- HollyWooD Movie-
Batman vs Superman
Dawn Of Justice
1080P / x264 / Hindi AC3 5.1 
English, Arabic & Turkish subtitle(s) 

Source : *** HDCLUB Blu-ray ***
Format : Matroska
File size : 3.68 GiB
Duration : 2h 31mn
Overall bit rate : 3 474 Kbps
Encoded date : UTC 2016-07-18 23:04:43

Video
Format : AVC
Format/Info : Advanced Video Codec
Format profile : [email protected]
Duration : 2h 31mn
Bit rate : 3 020 Kbps
Width : 1 920 pixels
Height : 800 pixels
Display aspect ratio : 2.40:1
Frame rate mode : Constant
Frame rate : 23.976 (24000/1001) fps
Color space : YUV
Chroma subsampling : 4:2:0
Bit depth : 8 bits
Scan type : Progressive
Bits/(Pixel*Frame) : 0.082
Stream size : 3.20 GiB (87%)
Color primaries : BT.709

Audio
Format : AC-3
Format/Info : Audio Coding 3
Mode extension : CM (complete main)
Format settings, Endianness : Big
Codec ID : A_AC3
Duration : 2h 31mn
Bit rate mode : Constant
Bit rate : 448 Kbps
Channel(s) : 6 channels
Channel positions : Front: L C R, Side: L R, LFE
Sampling rate : 48.0 KHz
Frame rate : 31.250 fps (1536 spf)
Compression mode : Lossy
Stream size : 486 MiB (13%)
Language : Hindi
Default : Yes
Forced : No
Chapters : YES
Sample : Included
A DDR Rxclusive Encode
No links available
No downloads available

Genres

Related movies

Watch Dragon ball super