Remember Me
A password will be e-mailed to you.
Please enter your username or email address. You will receive a link to create a new password via email.
Cancel
PerfectHDMovies.me

Batman V Superman Dawn of Justice 2016 Extended Cut Ultimate Edition HDRip x264 AC3-DaDDy 2GB

Batman v Superman: Dawn of Justice    

PG-13 151 min HollywoodHollywood HDRip

7.1
IMDB: 7.1/10 290,150 votes

, , ,

N/A

USA

Report error

Batman V Superman Dawn of Justice 2016 Extended Cut Ultimate Edition HDRip x264 AC3-DaDDy 2GB

Batman V Superman Dawn of Justice 2016 Extended Cut Ultimate Edition HDRip x264 AC3-DaDDy 2GB

Format : Matroska
File size : 1.95 GiB
Duration : 2h 54mn
Overall bit rate : 1 601 Kbps

Video
ID : 1
Format : AVC
Format/Info : Advanced Video Codec
Format profile : [email protected]
Format settings, CABAC : Yes
Format settings, ReFrames : 3 frames
Codec ID : V_MPEG4/ISO/AVC
Duration : 2h 54mn
Bit rate : 1 343 Kbps
Width : 720 pixels
Height : 304 pixels
Display aspect ratio : 2.35:1
Frame rate mode : Constant
Frame rate : 23.976 (24000/1001) fps
Color space : YUV
Chroma subsampling : 4:2:0
Bit depth : 8 bits
Scan type : Progressive
Bits/(Pixel*Frame) : 0.256
Stream size : 1.64 GiB (84%)

Audio
ID : 2
Format : AC-3
Format/Info : Audio Coding 3
Mode extension : CM (complete main)
Format settings, Endianness : Big
Codec ID : A_AC3
Duration : 2h 54mn
Bit rate mode : Constant
Bit rate : 256 Kbps
Channel(s) : 2 channels
Channel positions : Front: L R
Sampling rate : 48.0 KHz
Frame rate : 31.250 fps (1536 spf)
Compression mode : Lossy
Stream size : 320 MiB (16%)
Default : Yes
Forced : No

    

 

 Batman V Superman Dawn of Justice 2016 Extended Cut Ultimate Edition HDRip x264 AC3-DaDDy 2GB
Batman V Superman Dawn of Justice 2016 Extended Cut Ultimate Edition HDRip x264 AC3-DaDDy 2GB
Batman V Superman Dawn of Justice 2016 Extended Cut Ultimate Edition HDRip x264 AC3-DaDDy 2GB
*

*
*
*
*
 

 

No links available
No downloads available

Genres

Related movies

Watch Dragon ball super