Remember Me
A password will be e-mailed to you.
Please enter your username or email address. You will receive a link to create a new password via email.
Cancel
PerfectHDMovies.me

Batman v Superman Dawn of Justice 2016 – 720p – HDTS – Zi$t – CTRC [950Mb]

Batman v Superman: Dawn of Justice    

PG-13 151 min HollywoodHollywood Pre-Releases (Latest)

7.2
IMDB: 7.2/10 258,449 votes

N/A

USA

Report error

 

Batman v Superman Dawn of Justice 2016 – 720p – HDTS – Zi$t – CTRC [950Mb]

General
Complete name : Batman v Superman Dawn of Justice 2016
Format : MPEG-4
Format profile : Base Media / Version 2
Codec ID : mp42
File size : 955 MiB
Duration : 2h 24mn
Overall bit rate mode : Variable
Overall bit rate : 927 Kbps

Video
ID : 1
Format : AVC
Format/Info : Advanced Video Codec
Format profile : [email protected]
Format settings, CABAC : Yes
Format settings, ReFrames : 3 frames
Codec ID : avc1
Codec ID/Info : Advanced Video Coding
Duration : 2h 24mn
Source duration : 2h 24mn
Bit rate : 794 Kbps
Width : 1 136 pixels
Height : 480 pixels
Display aspect ratio : 2.35:1
Frame rate mode : Variable
Frame rate : 23.976 fps
Minimum frame rate : 23.976 fps
Maximum frame rate : 24.000 fps
Standard : NTSC
Color space : YUV
Chroma subsampling : 4:2:0
Bit depth : 8 bits
Scan type : Progressive
Bits/(Pixel*Frame) : 0.061
Stream size : 819 MiB (86%)
Source stream size : 819 MiB (86%)
Language : English

Audio
ID : 2
Format : AAC
Format/Info : Advanced Audio Codec
Format profile : LC
Codec ID : 40
Duration : 2h 24mn
Source duration : 2h 24mn
Bit rate mode : Variable
Bit rate : 125 Kbps
Maximum bit rate : 212 Kbps
Channel(s) : 2 channels
Channel positions : Front: L R
Sampling rate : 48.0 KHz
Compression mode : Lossy
Stream size : 129 MiB (14%)
Source stream size : 129 MiB (14%)
Language : English

 
 
LETWATACH
*
USERSCLOUD
*
*
*
*
*
Batman v Superman Dawn of Justice 2016 – 720p – HDTS – Zi$t – CTRC [950Mb]
Batman v Superman Dawn of Justice 2016 – 720p – HDTS – Zi$t – CTRC [950Mb]
Batman v Superman Dawn of Justice 2016 – 720p – HDTS – Zi$t – CTRC [950Mb]
Batman v Superman Dawn of Justice 2016 – 720p – HDTS – Zi$t – CTRC [950Mb]
Batman v Superman Dawn of Justice 2016 – 720p – HDTS – Zi$t – CTRC [950Mb]
Batman v Superman Dawn of Justice 2016 – 720p – HDTS – Zi$t – CTRC [950Mb]
Batman v Superman Dawn of Justice 2016 – 720p – HDTS – Zi$t – CTRC [950Mb]
Batman v Superman Dawn of Justice 2016 – 720p – HDTS – Zi$t – CTRC [950Mb]
Batman v Superman Dawn of Justice 2016 – 720p – HDTS – Zi$t – CTRC [950Mb]
Batman v Superman Dawn of Justice 2016 – 720p – HDTS – Zi$t – CTRC [950Mb]
Batman v Superman Dawn of Justice 2016 – 720p – HDTS – Zi$t – CTRC [950Mb]
Batman v Superman Dawn of Justice 2016 – 720p – HDTS – Zi$t – CTRC [950Mb]
Batman v Superman Dawn of Justice 2016 – 720p – HDTS – Zi$t – CTRC [950Mb]
Batman v Superman Dawn of Justice 2016 – 720p – HDTS – Zi$t – CTRC [950Mb]
Batman v Superman Dawn of Justice 2016 – 720p – HDTS – Zi$t – CTRC [950Mb]
Batman v Superman Dawn of Justice 2016 – 720p – HDTS – Zi$t – CTRC [950Mb]
Batman v Superman Dawn of Justice 2016 – 720p – HDTS – Zi$t – CTRC [950Mb]
Batman v Superman Dawn of Justice 2016 – 720p – HDTS – Zi$t – CTRC [950Mb]
Batman v Superman Dawn of Justice 2016 – 720p – HDTS – Zi$t – CTRC [950Mb]
Batman v Superman Dawn of Justice 2016 – 720p – HDTS – Zi$t – CTRC [950Mb]
Batman v Superman Dawn of Justice 2016 – 720p – HDTS – Zi$t – CTRC [950Mb]
Batman v Superman Dawn of Justice 2016 – 720p – HDTS – Zi$t – CTRC [950Mb]
Batman v Superman Dawn of Justice 2016 – 720p – HDTS – Zi$t – CTRC [950Mb]
Batman v Superman Dawn of Justice 2016 – 720p – HDTS – Zi$t – CTRC [950Mb]
Batman v Superman Dawn of Justice 2016 – 720p – HDTS – Zi$t – CTRC [950Mb]
Batman v Superman Dawn of Justice 2016 – 720p – HDTS – Zi$t – CTRC [950Mb]
Batman v Superman Dawn of Justice 2016 – 720p – HDTS – Zi$t – CTRC [950Mb]
Batman v Superman Dawn of Justice 2016 – 720p – HDTS – Zi$t – CTRC [950Mb]
Batman v Superman Dawn of Justice 2016 – 720p – HDTS – Zi$t – CTRC [950Mb]
Batman v Superman Dawn of Justice 2016 – 720p – HDTS – Zi$t – CTRC [950Mb]
Batman v Superman Dawn of Justice 2016 – 720p – HDTS – Zi$t – CTRC [950Mb]
Batman v Superman Dawn of Justice 2016 – 720p – HDTS – Zi$t – CTRC [950Mb]
No links available
No downloads available

Genres

Related movies

Watch Dragon ball super