Remember Me
A password will be e-mailed to you.
Please enter your username or email address. You will receive a link to create a new password via email.
Cancel
PerfectHDMovies.me

Barbie Spy Squad (2016) 720p Blu-Ray x264 [Dual-Audio] [Hindi 2.0 + English 5.1] Esubs [PKG] – 793 MB

Barbie: Spy Squad    

N/A 75 min Dual AudioDual Audio Blu-Ray 720p

5.0
IMDB: 5.0/10 110 votes

, , , , , , , , , ,

N/A

USA, Canada

Report error

 barbiespysquaddvd.jpg
General
Unique ID : 197233874926894017730438841689372619165 (0x9461DCD1D75B70AA8805A1F00977F19D)
Complete name : E:\encode\Barbie Spy Squad (2016) 720p Blu-Ray x264 [Dual-Audio] [Hindi 2.0 + English 5.1] Esubs [PKG]\Barbie Spy Squad (2016) 720p Blu-Ray x264 [Dual-Audio] [Hindi 2.0 + English 5.1] Esubs [PKG].mkv
Format : Matroska
Format version : Version 4 / Version 2
File size : 788 MiB
Duration : 1h 15mn
Overall bit rate : 1 461 Kbps
Movie name : Barbie Spy Squad (2016) 720p Blu-Ray x264 [Dual-Audio] [Hindi 2.0 + English 5.1] Esubs [PKG]
Encoded date : UTC 2016-04-15 05:22:46
Writing application : mkvmerge v8.9.0 ('Father Daughter') 64bit
Writing library : libebml v1.3.3 + libmatroska v1.4.4
DURATION : 01:15:25.536000000
NUMBER_OF_FRAMES : 141423
NUMBER_OF_BYTES : 126715008

Video
ID : 1
Format : AVC
Format/Info : Advanced Video Codec
Format profile : [email protected]
Format settings, CABAC : Yes
Format settings, ReFrames : 5 frames
Codec ID : V_MPEG4/ISO/AVC
Duration : 1h 15mn
Bit rate : 999 Kbps
Width : 1 280 pixels
Height : 720 pixels
Display aspect ratio : 16:9
Frame rate mode : Constant
Frame rate : 23.976 fps
Color space : YUV
Chroma subsampling : 4:2:0
Bit depth : 8 bits
Scan type : Progressive
Bits/(Pixel*Frame) : 0.045
Stream size : 531 MiB (67%)
Title : [PKG]
Writing library : x264 core 148 r2638 7599210
Default : Yes
Forced : No
Color primaries : BT.709
Matrix coefficients : BT.709
Color range : Limited

Audio #1
ID : 2
Format : AC-3
Format/Info : Audio Coding 3
Mode extension : CM (complete main)
Format settings, Endianness : Big
Codec ID : A_AC3
Duration : 1h 15mn
Bit rate mode : Constant
Bit rate : 224 Kbps
Channel(s) : 2 channels
Channel positions : Front: L R
Sampling rate : 48.0 KHz
Bit depth : 16 bits
Compression mode : Lossy
Stream size : 121 MiB (15%)
Title : [PKG]
Language : Hindi
Default : Yes
Forced : Yes

Audio #2
ID : 4
Format : AC-3
Format/Info : Audio Coding 3
Mode extension : CM (complete main)
Format settings, Endianness : Big
Codec ID : A_AC3
Duration : 1h 15mn
Bit rate mode : Constant
Bit rate : 224 Kbps
Channel(s) : 6 channels
Channel positions : Front: L C R, Side: L R, LFE
Sampling rate : 48.0 KHz
Bit depth : 16 bits
Compression mode : Lossy
Stream size : 121 MiB (15%)
Title : [PKG]
Language : English
Default : No
Forced : No

Text
ID : 3
Format : PGS
Muxing mode : zlib
Codec ID : S_HDMV/PGS
Codec ID/Info : The same subtitle format used on BDs/HD-DVDs
Title : [PKG]
Language : English
Default : Yes
Forced : No
 vlcsnap-2016-04-23-17h21m50s195.png
vlcsnap-2016-04-23-17h21m58s13.png
vlcsnap-2016-04-23-17h22m18s215.png
vlcsnap-2016-04-23-17h22m08s119.png
vlcsnap-2016-04-23-17h22m23s12.png
vlcsnap-2016-04-23-17h22m33s93.png
BarbieSpySquad2016720pBlu-Rayx264Dual-AudioHindi2.0English5.1EsubsPKG.mkv_thumbs_2016.04.23_17.21.17.jpgThanks to LOKI and David Call

LETWATACH
*
*
USERSFILES
*
*
*
*
 

 

Barbie Spy Squad (2016) 720p Blu-Ray x264 [Dual-Audio] [Hindi 2.0 + English 5.1] Esubs [PKG] – 793 MB
Barbie Spy Squad (2016) 720p Blu-Ray x264 [Dual-Audio] [Hindi 2.0 + English 5.1] Esubs [PKG] – 793 MB
Barbie Spy Squad (2016) 720p Blu-Ray x264 [Dual-Audio] [Hindi 2.0 + English 5.1] Esubs [PKG] – 793 MB
Barbie Spy Squad (2016) 720p Blu-Ray x264 [Dual-Audio] [Hindi 2.0 + English 5.1] Esubs [PKG] – 793 MB
Barbie Spy Squad (2016) 720p Blu-Ray x264 [Dual-Audio] [Hindi 2.0 + English 5.1] Esubs [PKG] – 793 MB
No links available
No downloads available

Genres

Related movies

Watch Dragon ball super