Remember Me
A password will be e-mailed to you.
Please enter your username or email address. You will receive a link to create a new password via email.
Cancel
PerfectHDMovies.me

Banjo (2016) x264 DesiSCR Rip Cleaned AAC 2.0 -DDR 1.37 GiB

Banjo    

N/A N/A BollywoodBollywood Pre-Releases (Latest)

N/A
IMDB: N/A/10 N/A votes

,

N/A

India

Report error

Banjo (2016) x264 DesiSCR Rip Cleaned AAC 2.0 -DDR

Banjo (2016) x264 DesiSCR Rip Cleaned AAC 2.0 -DDR

Specs:
Source: DesiSCR @ EXD

Format : Matroska
File size : 1.37 GiB
Duration : 2 h 15 min
Overall bit rate : 1 445 kb/s

Video
Format : AVC
Format/Info : Advanced Video Codec
Format profile : [email protected]
Format settings, CABAC : Yes
Format settings, ReFrames : 16 frames
Codec ID : V_MPEG4/ISO/AVC
Duration : 2 h 15 min
Bit rate : 1 313 kb/s
Width : 720 pixels
Height : 304 pixels
Display aspect ratio : 2.35:1
Frame rate mode : Constant
Frame rate : 25.000 FPS
Color space : YUV
Chroma subsampling : 4:2:0
Bit depth : 8 bits
Scan type : Progressive
Bits/(Pixel*Frame) : 0.240
Stream size : 1.24 GiB (91%)
Default : Yes
Forced : No
Color range : Limited
Color primaries : BT.601 NTSC
Transfer characteristics : BT.470 System B, BT.470 System G
Matrix coefficients : BT.601

Audio
ID : 2
Format : AAC
Format/Info : Advanced Audio Codec
Format profile : LC
Codec ID : A_AAC
Duration : 2 h 15 min
Bit rate : 128 kb/s
Channel(s) : 2 channels
Channel positions : Front: L R
Sampling rate : 48.0 kHz
Frame rate : 46.875 FPS (1024 spf)
Compression mode : Lossy
Delay relative to video : 9 ms
Stream size : 124 MiB (9%)
Language : Hindi
Default : Yes
Forced : No

 
Banjo (2016) x264 DesiSCR Rip Cleaned AAC 2.0 -DDR
Banjo (2016) x264 DesiSCR Rip Cleaned AAC 2.0 -DDR
Banjo (2016) x264 DesiSCR Rip Cleaned AAC 2.0 -DDR
…………………..

SAMPLE

…………………..
LETWATACH
*
*
*
*
*
*
*
GO4UP 

No links available
No downloads available

Genres

Related movies

Watch Dragon ball super