Remember Me
A password will be e-mailed to you.
Please enter your username or email address. You will receive a link to create a new password via email.
Cancel
PerfectHDMovies.me

Banjaran (1991) WEB-HD Untouched 1080p Hon3yHD~2.41 GB

Banjaran    

N/A N/A BollywoodBollywood WEB-DL 1080p

5.2
IMDB: 5.2/10 30 votes

, , ,

N/A

India

Report error

Banajran (1991) WEB-HD Untouched 1080p Hon3yHD

Banjaran  (1991) WEB-HD Untouched 1080p Hon3yHD~2.41 GB

Info

Format : MPEG-4
Format profile : Base Media
Codec ID : isom (isom/iso2/avc1/mp41)
File size : 2.41 GiB
Duration : 2h 25mn
Overall bit rate mode : Variable
Overall bit rate : 2 374 Kbps
Encoded date : UTC 2016-02-16 09:16:38
Tagged date : UTC 2016-02-16 09:16:38

Video
ID : 1
Format : AVC
Format/Info : Advanced Video Codec
Format profile : [email protected]
Format settings, CABAC : Yes
Format settings, ReFrames : 3 frames
Codec ID : avc1
Codec ID/Info : Advanced Video Coding
Duration : 2h 25mn
Bit rate : 2 245 Kbps
Width : 1 920 pixels
Height : 1 080 pixels
Display aspect ratio : 16:9
Frame rate mode : Constant
Frame rate : 25.000 fps
Color space : YUV
Chroma subsampling : 4:2:0
Bit depth : 8 bits
Scan type : Progressive
Bits/(Pixel*Frame) : 0.043
Stream size : 2.28 GiB (95%)
Encoded date : UTC 2016-02-16 09:16:38
Tagged date : UTC 2016-02-16 09:16:38
Color range : Limited
Color primaries : BT.709
Transfer characteristics : BT.709
Matrix coefficients : BT.709

Audio
ID : 2
Format : AAC
Format/Info : Advanced Audio Codec
Format profile : LC
Codec ID : 40
Duration : 2h 25mn
Bit rate mode : Variable
Bit rate : 126 Kbps
Channel(s) : 2 channels
Channel positions : Front: L R
Sampling rate : 44.1 KHz
Frame rate : 43.066 fps (1024 spf)
Compression mode : Lossy
Stream size : 131 MiB (5%)
Default : Yes

 http://extraimago.com/images/2016/05/02/Banajran14.th.png
http://extraimago.com/images/2016/05/02/Banajran39.th.png
http://extraimago.com/images/2016/05/02/Banajran6.th.png
*
*
*
*
*
*
No links available
No downloads available

Genres

Related movies

Watch Dragon ball super