Remember Me
A password will be e-mailed to you.
Please enter your username or email address. You will receive a link to create a new password via email.
Cancel
PerfectHDMovies.me

Bajirao Mastani (2015) – 720p – BluRay – Hindi – AC3 – 5.1 – Esubs – [PKG] ~ 1.36 GB

Bajirao Mastani    

N/A 158 min BollywoodBollywood Blu-Ray 720p

7.3
IMDB: 7.3/10 14,276 votes

, , ,

6 wins & 7 nominations.

India

Report error

 Bajirao-Mastani-poster.jpg
General
Unique ID : 198617182634529712134430258156121044527 (0x956C4727C4B2DBBAB0D929C3F9A7362F)
Complete name : E:\encode\Bajirao Mastani (2015) - 720p - BluRay - Hindi - AC3 - 5.1 - Esubs - [PKG]\Bajirao Mastani (2015) - 720p - BluRay - Hindi - AC3 - 5.1 - Esubs - [PKG].mkv
Format : Matroska
Format version : Version 4 / Version 2
File size : 1.35 GiB
Duration : 2h 38mn
Overall bit rate : 1 226 Kbps
Movie name : Bajirao Mastani (2015) - 720p - BluRay - Hindi - AC3 - 5.1 - Esubs - [PKG]
Encoded date : UTC 2016-03-21 18:06:22
Writing application : mkvmerge v8.9.0 ('Father Daughter') 64bit
Writing library : libebml v1.3.3 + libmatroska v1.4.4
DURATION : 02:29:51.044000000
NUMBER_OF_FRAMES : 1333
NUMBER_OF_BYTES : 48790

Video
ID : 1
Format : AVC
Format/Info : Advanced Video Codec
Format profile : [email protected]
Format settings, CABAC : Yes
Format settings, ReFrames : 5 frames
Codec ID : V_MPEG4/ISO/AVC
Duration : 2h 38mn
Bit rate : 1 000 Kbps
Width : 1 280 pixels
Height : 544 pixels
Display aspect ratio : 2.35:1
Frame rate mode : Constant
Frame rate : 24.000 fps
Color space : YUV
Chroma subsampling : 4:2:0
Bit depth : 8 bits
Scan type : Progressive
Bits/(Pixel*Frame) : 0.060
Stream size : 1.08 GiB (80%)
Title : [PKG]
Writing library : x264 core 148 r2638 7599210
Default : Yes
Forced : No

Audio
ID : 2
Format : AC-3
Format/Info : Audio Coding 3
Mode extension : CM (complete main)
Format settings, Endianness : Big
Codec ID : A_AC3
Duration : 2h 38mn
Bit rate mode : Constant
Bit rate : 224 Kbps
Channel(s) : 6 channels
Channel positions : Front: L C R, Side: L R, LFE
Sampling rate : 48.0 KHz
Bit depth : 16 bits
Compression mode : Lossy
Stream size : 253 MiB (18%)
Title : [PKG]
Language : Hindi
Default : Yes
Forced : Yes

Text
ID : 3
Format : UTF-8
Codec ID : S_TEXT/UTF8
Codec ID/Info : UTF-8 Plain Text
Title : [PKG]
Language : English
Default : Yes
Forced : No
vlcsnap-2016-03-22-21h12m21s21.png
vlcsnap-2016-03-22-21h12m30s136.png
vlcsnap-2016-03-22-21h12m56s136.png
vlcsnap-2016-03-22-21h13m43s95.png
vlcsnap-2016-03-22-21h13m54s202.png
vlcsnap-2016-03-22-21h14m05s68.png
vlcsnap-2016-03-22-21h14m18s186.png
vlcsnap-2016-03-22-21h14m28s34.png
vlcsnap-2016-03-22-21h14m41s168.png
vlcsnap-2016-03-22-21h15m13s250.png
vlcsnap-2016-03-22-21h15m21s51.png
BajiraoMastani2015-720p-BluRay-Hindi-AC3-5.1-Esubs-PKG.mkv_thumbs_2016.03.22_21.16.17.jpgThanks to DDR

LETWATACH
*
*
*
*
*
*
 

 

No links available
No downloads available

Genres

Related movies

Watch Dragon ball super