Remember Me
A password will be e-mailed to you.
Please enter your username or email address. You will receive a link to create a new password via email.
Cancel
PerfectHDMovies.me

Bajirao Ek Yodha (2015) Hindi 720p HDRip x264 AAC – 7Star 1.86 GB

Dual AudioDual Audio Blu-Ray 1080p

IMDB: /10 votes

Report error

Bajirao Ek Yodha (2015) Hindi 720p HDRip x264 AAC – 7Star   

General
Complete name : Bajirao Ek Yodha (2015) Hindi 720p HDRip x264 AAC – 7Star
Format : MPEG-4
Format profile : Base Media / Version 2
Codec ID : mp42
File size : 1.86 GiB
Duration : 2h 5mn

Video
ID : 1
Format : AVC
Format/Info : Advanced Video Codec
Format profile : [email protected]
Format settings, CABAC : Yes
Format settings, ReFrames : 1 frame
Format settings, GOP : M=1, N=60
Codec ID : avc1
Codec ID/Info : Advanced Video Coding
Duration : 2h 5mn
Bit rate : 1 925 Kbps
Maximum bit rate : 8 458 Kbps
Width : 1 280 pixels
Height : 544 pixels
Display aspect ratio : 16:9
Frame rate mode : Constant
Frame rate : 25.000 fps
Color space : YUV
Chroma subsampling : 4:2:0
Bit depth : 8 bits
Scan type : Progressive
Bits/(Pixel*Frame) : 0.084
Stream size : 1.69 GiB (91%)
Tagged date : UTC 2015-12-14 02:45:08
Default : Yes
Forced : No

Audio
ID : 2
Format : AAC
Format/Info : Advanced Audio Codec
Format profile : LC
Codec ID : 40
Duration : 2h 5mn
Bit rate mode : Variable
Bit rate : 192 Kbps
Maximum bit rate : 201 Kbps
Channel(s) : 2 channels
Channel positions : Front: L R
Sampling rate : 44.1 KHz
Compression mode : Lossy
Stream size : 173 MiB (9%)
Title : 7Star
Language : Hindi
Default : No
Forced : No







*
*
*
*
*
No links available
No downloads available

Genres

Related movies

Watch Dragon ball super