Remember Me
A password will be e-mailed to you.
Please enter your username or email address. You will receive a link to create a new password via email.
Cancel
PerfectHDMovies.me

Baar Baar Dekho (2016) 720p DesiSCR Rip – x264 (Dolby Digital Surrond 5.1) – DUS

Baar Baar Dekho    

N/A 141 min BollywoodBollywood Pre-Releases (Latest)

7.7
IMDB: 7.7/10 107 votes

, , ,

N/A

India

Report error

Baar Baar Dekho (2016) 720p DesiSCR Rip - x264 (Dolby Digital Surrond 5.1) - DUS

Baar Baar Dekho (2016) 720p DesiSCR Rip – x264 (Dolby Digital Surrond 5.1) – DUS 

General
Complete name               : Baar Baar Dekho (2016) 720p DesiSCR Rip - x264 (Dolby Digital Surrond 5.1) - DUS 
Format                      : Matroska
Format version              : Version 2
File size                   : 3.85 GiB
Duration                    : 2 h 20 min
Overall bit rate            : 3 917 kb/s
Encoded By                  : S3AR3

Video
ID                          : 1
Format                      : AVC
Format/Info                 : Advanced Video Codec
Format profile              : [email protected]
Format settings, CABAC      : Yes
Format settings, ReFrames   : 4 frames
Codec ID                    : V_MPEG4/ISO/AVC
Duration                    : 2 h 20 min
Bit rate                    : 3 531 kb/s
Width                       : 1 920 pixels
Height                      : 816 pixels
Display aspect ratio        : 2.35:1
Frame rate mode             : Constant
Frame rate                  : 29.970 (30000/1001) FPS
Color space                 : YUV
Chroma subsampling          : 4:2:0
Bit depth                   : 8 bits
Scan type                   : Progressive
Bits/(Pixel*Frame)          : 0.075
Stream size                 : 3.47 GiB (90%)
Writing library             : x264 core
Default                     : Yes
Forced                      : No

Audio
ID                          : 2
Format                      : AC-3
Format/Info                 : Audio Coding 3
Mode extension              : CM (complete main)
Format settings, Endianness : Big
Codec ID                    : A_AC3
Duration                    : 2 h 20 min
Bit rate mode               : Constant
Bit rate                    : 384 kb/s
Channel(s)                  : 6 channels
Channel positions           : Front: L C R, Side: L R, LFE
Sampling rate               : 48.0 kHz
Frame rate                  : 31.250 FPS (1536 spf)
Compression mode            : Lossy
Stream size                 : 386 MiB (10%)
Language                    : new
Default                     : Yes
Forced                      : No

Baar Baar Dekho (2016) 720p DesiSCR Rip - x264 (Dolby Digital Surrond 5.1) - DUS Baar Baar Dekho (2016) 720p DesiSCR Rip - x264 (Dolby Digital Surrond 5.1) - DUS Baar Baar Dekho (2016) 720p DesiSCR Rip - x264 (Dolby Digital Surrond 5.1) - DUS

LETWATCH

USERSCLOUD
*
*
*
*
*
 

 

No links available
No downloads available

Genres

Related movies

Watch Dragon ball super