Remember Me
A password will be e-mailed to you.
Please enter your username or email address. You will receive a link to create a new password via email.
Cancel
PerfectHDMovies.me

Azhar (2016) DesiSCR Rip x264 AAC Cleaned Audio [DDR] 1.5Gb

2h 10min BollywoodBollywood Pre-Releases (Latest)

8.0
IMDB: 8.0/10 votes

, ,

India

Report error

Azhar (2016) DesiSCR Rip x264 AAC Cleaned Audio [DDR]

Azhar (2016) DesiSCR Rip x264 AAC Cleaned Audio [DDR]

General
Source = Desi SCR Mpeg Dump @ DDR
Format : Matroska
File size : 1.48 GiB
Duration : 2h 10mn
Overall bit rate : 1 626 Kbps

Video
Format : AVC
Format profile : [email protected]
Format settings, CABAC : Yes
Format settings, ReFrames : 5 frames
Bit rate : 1 480 Kbps
Width : 720 pixels
Height : 320 pixels
Display aspect ratio : 2.25:1
Frame rate mode : Constant
Frame rate : 25.000 fps
Color space : YUV
Chroma subsampling : 4:2:0
Bit depth : 8 bits
Scan type : Progressive
Bits/(Pixel*Frame) : 0.257
Stream size : 1.36 GiB (92%)
Language : English
Default : Yes
Forced : No

Audio
Format : AAC
Format profile : LC
Bit rate : 128 Kbps
Channel(s) : 2 channels
Channel positions : Front: L R
Sampling rate : 48.0 KHz
Frame rate : 46.875 fps (1024 spf)
Compression mode : Lossy
Stream size : 119 MiB (8%)
Default : Yes
Forced : No
Chapters: None 
A DDR Exclusive Release...!
No links available
No downloads available

Genres

Related movies

Watch Dragon ball super