Remember Me
A password will be e-mailed to you.
Please enter your username or email address. You will receive a link to create a new password via email.
Cancel
PerfectHDMovies.me

Azhar {2016} 720p DesiScr Rip x264 AC3 {Team DUS} – jnmjy 2.7 Gb

Azhar    

N/A N/A Bollywood Pre-Releases (Latest)

N/A
IMDB: N/A/10 N/A votes

, , ,

N/A

India

Report error

Azhar {2016} 720p DesiScr Rip x264 AC3 {Team DUS}

Azhar {2016} 720p DesiScr Rip x264 AC3

{Team DUS}

Year.............: 2016
Source: DUS Exclusive
Ripper...........: jnmjy

General
Format                                   : Matroska
Format version                           : Version 2
File size                                : 2.68 GiB
Duration                                 : 2h 10mn
Overall bit rate                         : 2 950 Kbps
Encoded date                             : UTC 2016-05-15 03:26:10
Writing application                      : mkvmerge v8.5.2 ('Crosses') 32bit
Writing library                          : libebml v1.3.3 + libmatroska v1.4.4
DURATION                                 : 02:10:00.384000000

Video
ID                                       : 1
Format                                   : AVC
Format/Info                              : Advanced Video Codec
Format profile                           : [email protected]
Format settings, CABAC                   : Yes
Format settings, ReFrames                : 4 frames
Codec ID                                 : V_MPEG4/ISO/AVC
Duration                                 : 2h 10mn
Bit rate                                 : 2 500 Kbps
Width                                    : 1 288 pixels
Height                                   : 544 pixels
Display aspect ratio                     : 2.35:1
Frame rate mode                          : Constant
Frame rate                               : 25.000 fps
Color space                              : YUV
Chroma subsampling                       : 4:2:0
Bit depth                                : 8 bits
Scan type                                : Progressive
Bits/(Pixel*Frame)                       : 0.143
Stream size                              : 2.22 GiB (83%)
Writing library                          : x264 core 148 r2638 7599210

Default                                  : Yes
Forced                                   : No

Audio
ID                                       : 2
Format                                   : AC-3
Format/Info                              : Audio Coding 3
Mode extension                           : CM (complete main)
Format settings, Endianness              : Big
Codec ID                                 : A_AC3
Duration                                 : 2h 10mn
Bit rate mode                            : Constant
Bit rate                                 : 448 Kbps
Channel(s)                               : 6 channels
Channel positions                        : Front: L C R, Side: L R, LFE
Sampling rate                            : 48.0 KHz
Compression mode                         : Lossy
Stream size                              : 417 MiB (15%)
Default                                  : Yes
Forced                                   : No

 
Azhar {2016} 720p DesiScr Rip x264 AC3 {Team DUS}
Azhar {2016} 720p DesiScr Rip x264 AC3 {Team DUS}
Azhar {2016} 720p DesiScr Rip x264 AC3 {Team DUS}
LETWATACH
*
*
*
*
*
*
GO4UP 
No links available
No downloads available

Genres

Related movies

Watch Dragon ball super