Remember Me
A password will be e-mailed to you.
Please enter your username or email address. You will receive a link to create a new password via email.
Cancel
PerfectHDMovies.me

Azaan (2011) WEBHD 1080p [Hon3yHD]

Aazaan    

N/A N/A BollywoodBollywood WEB-DL 1080p

4.5
IMDB: 4.5/10 278 votes

, , ,

N/A

India

Report error

Azaan (2011) WEBHD 1080p [Hon3yHD]

Azaan (2011) WEBHD 1080p [Hon3yHD]

Format                      : Matroska
 Format version              : Version 4 / Version 2
 File size                   : 1.99 GiB
 Duration                    : 2h 7mn
 Overall bit rate            : 2 240 Kbps
 Movie name                  : JamesBond007 [Hon3yHD]
 Encoded date                : UTC 2016-07-11 14:53:19



Video
 ID                          : 1
 Format                      : AVC
 Format/Info                 : Advanced Video Codec
 Format profile              : [email protected]
 Format settings, CABAC      : Yes
 Format settings, ReFrames   : 3 frames
 Codec ID                    : V_MPEG4/ISO/AVC
 Duration                    : 2h 7mn
 Bit rate                    : 2 112 Kbps
 Width                       : 1 920 pixels
 Height                      : 1 080 pixels
 Display aspect ratio        : 16:9
 Frame rate mode             : Constant
 Frame rate                  : 23.976 fps
 Color space                 : YUV
 Chroma subsampling          : 4:2:0
 Bit depth                   : 8 bits
 Scan type                   : Progressive
 Bits/(Pixel*Frame)          : 0.042
 Stream size                 : 1.88 GiB (94%)
 Title                       : JamesBond007 [Hon3yHD]
 Default                     : Yes
 Forced                      : No
 Color range                 : Limited
 Color primaries             : BT.709
 Transfer characteristics    : BT.709
 Matrix coefficients         : BT.709 



Audio
 ID                          : 2
 Format                      : AAC
 Format/Info                 : Advanced Audio Codec
 Format profile              : LC
 Codec ID                    : A_AAC
 Duration                    : 2h 7mn
 Bit rate                    : 126 Kbps
 Channel(s)                  : 2 channels
 Channel positions           : Front: L R
 Sampling rate               : 44.1 KHz
 Frame rate                  : 43.066 fps (1024 spf)
 Compression mode            : Lossy
 Stream size                 : 115 MiB (6%)
 Title                       : JamesBond007 [Hon3yHD]
 Language                    : Hindi
 Default                     : Yes
 Forced                      : No

Azaan (2011) WEBHD 1080p [Hon3yHD]Azaan (2011) WEBHD 1080p [Hon3yHD]Azaan (2011) WEBHD 1080p [Hon3yHD]Azaan (2011) WEBHD 1080p [Hon3yHD]

LETWATACH
*
*
*
*
*
*
*
GO4UP 
No links available
No downloads available

Genres

Related movies

Watch Dragon ball super