All posts by Uttamlex

Drop Zone (1994) 1080p BluRay x264 [Dual Audio] [Hindi Org 2.0 DD – English] – monu987~1.85Gb

Poster.jpg

Drop Zone (1994) 1080p BluRay x264 [Dual Audio] [Hindi Org 2.0 DD - English] - monu987
 Format : Matroska
 Format version : Version 4 / Version 2
 File size : 1.82 GiB
 Duration : 1h 41mn
 Overall bit rate : 2 568 KbpsVideo
 ID : 1
 Format : AVC
 Format/Info : Advanced Video Codec
 Format profile : [email protected]
 Format settings, CABAC : Yes
 Format settings, ReFrames : 5 frames
 Codec ID : V_MPEG4/ISO/AVC
 Duration : 1h 41mn
 Bit rate : 2 150 Kbps
 Width : 1 920 pixels
 Height : 800 pixels
 Display aspect ratio : 2.40:1
 Frame rate mode : Constant
 Frame rate : 23.976 fps
 Color space : YUV
 Chroma subsampling : 4:2:0
 Bit depth : 8 bits
 Scan type : Progressive
 Bits/(Pixel*Frame) : 0.058
 Stream size : 1.49 GiB (82%)
 Title : monu987
 Writing library : x264 core 142 r2431 ac76440
 Color range : Limited
 Color primaries : Generic film
 Transfer characteristics : BT.709
 Matrix coefficients : BT.709Audio #1
 ID : 2
 Format : AC-3
 Format/Info : Audio Coding 3
 Format profile : Dolby Digital
 Mode extension : CM (complete main)
 Format settings, Endianness : Big
 Codec ID : A_AC3
 Duration : 1h 41mn
 Bit rate mode : Constant
 Bit rate : 224 Kbps
 Channel(s) : 2 channels
 Channel positions : Front: L R
 Sampling rate : 44.1 KHz
 Bit depth : 16 bits
 Compression mode : Lossy
 Stream size : 163 MiB (9%)
 Title : monu987
 Language : Hindi
 Default : Yes
 Forced : YesAudio #2
 ID : 3
 Format : AC-3
 Format/Info : Audio Coding 3
 Mode extension : CM (complete main)
 Format settings, Endianness : Big
 Codec ID : A_AC3
 Duration : 1h 41mn
 Bit rate mode : Constant
 Bit rate : 192 Kbps
 Channel(s) : 6 channels
 Channel positions : Front: L C R, Side: L R, LFE
 Sampling rate : 48.0 KHz
 Bit depth : 16 bits
 Compression mode : Lossy
 Stream size : 139 MiB (7%)
 Title : monu987
 Language : English
 Default : No
 Forced : No

Star Wars – Episode VII – The Force Awakens (2015) 720p BluRay x264 [Dual Audio] [Hindi 2.0 – English 2.0] Exclusive By -=!Dr.STAR!=- – 1.38 GB

Cover_Star_Wars_Episode_VII_The_Force_Awaken.jpg

Star Wars – Episode VII – The Force Awakens (2015) 720p BluRay x264 [Dual Audio] [Hindi 2.0 – English 2.0] Exclusive By -=!Dr.STAR!=

General
Format : Matroska
Format version : Version 4 / Version 2
File size : 1.38 GiB
Duration : 2h 18mn
Overall bit rate : 1 433 Kbps
Video
ID : 1
Format : AVC
Codec ID : V_MPEG4/ISO/AVC
Duration : 2h 18mn
Bit rate : 1 175 Kbps
Width : 1 280 pixels
Height : 536 pixels
Display aspect ratio : 2.40:1
Frame rate mode : Constant
Frame rate : 23.976 (24000/1001) fps
Title : -=!Dr.STAR!=-
Writing library : x264 core 133 r2334 a3ac64b
Audio #1
ID : 2
Format : AC-3
Codec ID : A_AC3
Duration : 2h 18mn
Bit rate mode : Constant
Bit rate : 192 Kbps
Channel(s) : 2 channels
Channel positions : Front: L R
Sampling rate : 48.0 KHz
Title : -=!Dr.STAR!=-
Language : Hindi
Audio #2
ID : 3
Format : AAC
Codec ID : A_AAC
Duration : 2h 18mn
Bit rate : 63.9 Kbps
Channel(s) : 2 channels
Channel positions : Front: L R
Sampling rate : 48.0 KHz / 24.0 KHz
Frame rate : 23.438 fps (1024 spf)
Title : -=!Dr.STAR!=-
Language : English

*

*

*

 ————————————————–
Note: Hindi Cleaned Cam Audio
Audio Source By Dr.STAR
Pefect Sync By By Dr.STAR
————————————————–
SWFA_1.png
SWFA_2.png
SWFA_4.png
SWFA_7.png
*
*
*
LETWATACH
*
VODLOCKER
*
*
*
*
*
*
*
*
——————–
——————–

 

Homefront (2013) 1080p BluRay x264 [Dual Audio] [Hindi 2.0 – English] – monu987 ~ 2.11 GB

Homefront (2013) 1080p BluRay x264 [Dual Audio] [Hindi 2.0 – English] – monu987
Format : Matroska
Format version : Version 4 / Version 2
File size : 2.07 GiB
Duration : 1h 40mn
Overall bit rate : 2 951 Kbps


Video
ID : 1
Format : AVC
Format/Info : Advanced Video Codec
Format profile : [email protected]
Format settings, CABAC : Yes
Format settings, ReFrames : 4 frames
Codec ID : V_MPEG4/ISO/AVC
Duration : 1h 40mn
Nominal bit rate : 2 500 Kbps
Width : 1 920 pixels
Height : 800 pixels
Display aspect ratio : 2.40:1
Frame rate mode : Constant
Frame rate : 23.976 fps
Color space : YUV
Chroma subsampling : 4:2:0
Bit depth : 8 bits
Scan type : Progressive
Bits/(Pixel*Frame) : 0.068
Title : monu987
Writing library : x264 core 148 r2638M 7599210
Audio #1
ID : 2
Format : AC-3
Format/Info : Audio Coding 3
Format profile : Dolby Digital
Mode extension : CM (complete main)
Format settings, Endianness : Big
Codec ID : A_AC3
Duration : 1h 40mn
Bit rate mode : Constant
Bit rate : 224 Kbps
Channel(s) : 2 channels
Channel positions : Front: L R
Sampling rate : 44.1 KHz
Bit depth : 16 bits
Compression mode : Lossy
Stream size : 161 MiB (8%)
Title : monu987
Language : Hindi Indian Dubbing
Default : Yes
Forced : Yes
 Audio #2
ID : 3
Format : AAC
Format/Info : Advanced Audio Codec
Format profile : LC
Codec ID : A_AAC
Duration : 1h 40mn
Channel(s) : 6 channels
Channel positions : Front: L C R, Side: L R, LFE
Sampling rate : 48.0 KHz
Compression mode : Lossy
Title : monu987
Language : English
Default : No
Forced : No
Special Thanks To David Call Bro For Hindi Audio Source

Note: No Watermarks/Tags in Audio & Video …. Enjoy Movie:)
08.md.png 04.md.png
02.md.png 07.md.png
10.md.png 01.md.png
11.md.png 09.md.png
05.md.png 06.md.png
03.md.pngSpecial Thanks To – TMX, Invincible,Sadhu’s-HD,Sher-Khan,sbaz44,TBI,DrStar,Dredd,David,Shawn-James, Abu-Hamza

Respect To All Teams – HDDR,Gpsoft,IcTv,SDR,HKRG,TEAM warriors,TeamTNT,M2TV,Hon3y,Team-Exd,XMR,TMRG,PerfectHDMovies and other past-present teams

Also Thanks To All Hollywood Hindi Dubbed Movie Lovers For There Appreciation (y)

*
USERFILES
*
*
GO4UP

 

Avengers Grimm (2015) 720p BluRay x264 Hindi ORG. DD 2.0 – MRDhila ~771 MB

Source – Imran Bro [ImuHD] Billion Thanks

Format : Matroska
Format version : Version 4 / Version 2
File size : 766 MiB
Duration : 1h 25mn
Overall bit rate mode : Variable
Overall bit rate : 1256 Kbps
Video
ID : 1
Format : AVC
Format/Info : Advanced Video Codec
Format profile : [email protected]
Duration : 1h 25mn
Nominal bit rate : 1127 Kbps
Width : 1280 pixels
Height : 720 pixels
Display aspect ratio : 16:9
Frame rate mode : Constant
Frame rate : 24.000 fps
Audio
ID : 2
Format : AC3
Format/Info : Audio Coding 3
Duration : 1h 25mn
Bit rate mode : Variable
Bit rate : 128 Kbps
Channel(s) : 2 channels
language : Hindi
vlcsnap-2016-02-27-10h41m39s867.png
vlcsnap-2016-02-27-10h45m35s465.png
vlcsnap-2016-02-27-10h40m25s298.png
vlcsnap-2016-02-27-10h42m13s137.png
vlcsnap-2016-02-27-10h43m13s048.png
vlcsnap-2016-02-27-10h43m25s436.png

 

*
USERFILES
*
JHEBERG
*