All posts by Tahir Safder

Muqaddar Ka Sikandar (1978) 1/2DVDRip x264 AC3 Esubs ALICE TDBB

General
 
 Format : Matroska
 Format version : Version 2
 File size : 2.21 GiB
 Duration : 2h 54mn
 Overall bit rate mode : Variable
 Overall bit rate : 1 808 Kbps
 Encoded date : UTC 2015-12-16 08:17:40
 Writing application : mkvmerge v4.0.0 ('The Stars were mine') gemaakt op Jun 6 2010 16:18:42
 Writing library : libebml v1.0.0 + libmatroska v1.0.0
 
 Video
 ID : 1
 Format : AVC
 Format/Info : Advanced Video Codec
 Format profile : [email protected]
 Format settings, CABAC : Yes
 Format settings, ReFrames : 3 frames
 Codec ID : V_MPEG4/ISO/AVC
 Duration : 2h 54mn
 Bit rate mode : Variable
 Bit rate : 1 358 Kbps
 Maximum bit rate : 40.0 Mbps
 Width : 720 pixels
 Height : 368 pixels
 Display aspect ratio : 1.957
 Frame rate mode : Constant
 
 Color space : YUV
 Chroma subsampling : 4:2:0
 Bit depth : 8 bits
 Scan type : Progressive
 
 Default : No
 Forced : No
 Color primaries : BT.709
 Transfer characteristics : BT.709
 Matrix coefficients : BT.709
 
 Audio
 ID : 2
 Format : AC-3
 Format/Info : Audio Coding 3
 Mode extension : CM (complete main)
 Format settings, Endianness : Big
 Codec ID : A_AC3
 Duration : 2h 54mn
 Bit rate mode : Constant
 Bit rate : 448 Kbps
 Channel(s) : 2 channels
 Channel positions : Front: L R
 Sampling rate : 48.0 KHz
 Bit depth : 16 bits
 Compression mode : Lossy
 Stream size : 561 MiB (25%)
 Default : Yes
 Forced : No

Neerja (2016) 500 MB HEVC DvDRip – x265 AAC – ESub – DUS 431.9 MB

~Neerja~

~> 2016 <~

*HEVC DVDRip – x265 – AAC – ESub – DUS*

Year.............: 2016
Ripper...........: Apka Sallu
Source...........: Hideman8's Warehouse (Thanks a lot Buddy)
Container........: MKV
Resolution.......: 640 x 272
Overall Bitrate..: 516 Kbps
Audio Language...: Hindi
Run Time.........: 01hr 56Mnts and few seconds
Audio............: AAC
Subtitle.........: English
Frame rate.......: 23.976 fps
 
LETWATACH
*
*
*
*
*
*
GO4UP

Pride.and.Prejudice.and.Zombies.2016.HDRip.XviD.AC3-iFT 1.75 GiB

Click To Resize

iFT PRESENTS

RELEASE NAME.....: Pride.and.Prejudice.and.Zombies.2016.HDRip.XviD.AC3-iFT
RELEASE SIZE.....: 1.75 GiB
RUNTIME..........: 1h 47mn 31s
VIDEO CODEC......: AVI XviD Spline36 neutral + Deblock
FRAMERATE........: 23.976 fps
BITRATE..........: 1 944 Kbps
RESOLUTION.......: 720 x 304
SAMPLE...........: Included
CHAPTERS.........: N/A
AUDIO............: ENGLISH AC3 6Chan @ 384 kbps
SOURCE...........: 1080p-FGT < Thanks >
SUBTITLES........: English (.SRT)
RELEASE DATE.....: 10/5/2016
ENCODER..........: Du

 

 Click To Resize
Click To Resize
Click To Resize
LETWATACH
*
USERSCLOUD
*
*
*
*
*

Well Wishes 2015 HDRip XviD AC3-EVO 1.4 GB

RELEASE: Well.Wishes.2015.HDRip.XviD.AC3-EVO                  

SOURCE: iTunes - Thanks friend!                

ViDEO: 1750 kbps XviD       

RESOLUTiON: 720x304       

RUNTiME: 1h33m33sec      

SUBTiTLES: N/A    

AUDiO: 384 CBR AC-3 5.1       

LANGUAGE: ENGLiSH      

GREETS: King_DVD* 

NOTES: Enjoy.
Click To Resize
Click To ResizeClick To Resize
LETWATACH
*
*
*
*
*
*
GO4UP

Kabhi Khushi Kabhie Gham (2001) BDRip 10bit HEVC x265 1080p HE-AAC 5.1 3.99 GiB

Kabhi Khushi Kabhie Gham (2001) BDRip 10bit HEVC x265 1080p HE-AAC 5.1

General
Format                                   : Matroska
Format version                           : Version 4 / Version 2
File size                                : 3.99 GiB
Duration                                 : 3h 29mn
Overall bit rate                         : 2 723 Kbps
Movie name                               : Kabhi Khushi Kabhi Gham (2001)
Encoded date                             : UTC 2016-05-09 05:43:25
Writing application                      : mkvmerge v9.1.0 ('Little Earthquakes') 64bit
Writing library                          : libebml v1.3.3 + libmatroska v1.4.4

Video
ID                                       : 1
Format                                   : HEVC
Format/Info                              : High Efficiency Video Coding
Format profile                           : Main [email protected]@Main
Codec ID                                 : V_MPEGH/ISO/HEVC
Duration                                 : 3h 29mn
Bit rate                                 : 2 500 Kbps
Width                                    : 1 920 pixels
Height                                   : 816 pixels
Display aspect ratio                     : 2.35:1
Frame rate mode                          : Constant
Frame rate                               : 24.000 fps
Color space                              : YUV
Chroma subsampling                       : 4:2:0
Bit depth                                : 10 bits
Bits/(Pixel*Frame)                       : 0.066
Stream size                              : 3.67 GiB (92%)
Writing library                          : x265 1.9+147-19cced21060f:[Windows][GCC 6.1.0][64 bit] 10bit
Language                                 : Hindi
Default                                  : Yes
Forced                                   : No

Audio
ID                                       : 2
Format                                   : AAC
Format/Info                              : Advanced Audio Codec
Format profile                           : HE-AAC / LC
Codec ID                                 : A_AAC
Duration                                 : 3h 29mn
Bit rate                                 : 214 Kbps
Channel(s)                               : 6 channels
Channel positions                        : Front: L C R, Side: L R, LFE
Sampling rate                            : 48.0 KHz / 24.0 KHz
Frame rate                               : 23.438 fps (1024 spf)
Compression mode                         : Lossy
Delay relative to video                  : 40ms
Stream size                              : 321 MiB (8%)
Language                                 : Hindi
Default                                  : No
Forced                                   : No

Text
ID                                       : 3
Format                                   : PGS
Muxing mode                              : zlib
Codec ID                                 : S_HDMV/PGS
Codec ID/Info                            : Picture based subtitle format used on BDs/HD-DVDs
Duration                                 : 3h 25mn
Bit rate                                 : 7 917 bps
Count of elements                        : 3277
Stream size                              : 11.7 MiB (0%)
Language                                 : English
Default                                  : No
Forced                                   : No
LETWATACH
*
*
*
*
MULTIUP
*
*

Neerja (2016) 720p DvDRip – x264 AC3 5.1 – ESub – DUS Exclusive 2.4 GB

~Neerja~

~> 2016 <~

*720p DVDRip – x264 – AC3 5.1 – ESub – DUS*

Year.............: 2016
Ripper...........: Apka Sallu
Source...........: Hideman8's Warehouse (Thanks a lot Buddy)
Container........: MKV
Resolution.......: 1288 x 544
Overall Bitrate..: 2988 Kbps
Audio Language...: Hindi
Run Time.........: 01hr 56Mnts and few seconds
Audio............: AC3 5.1 (Untouch)
Subtitle.........: English
Frame rate.......: 23.976 fps
LETWATACH
*
USERSCLOUD
*
*
*
*
*