Remember Me
A password will be e-mailed to you.
Please enter your username or email address. You will receive a link to create a new password via email.
Cancel
PerfectHDMovies.me

Aradhana (1987) – 1080p – WebDL – x264 – AAC [xDM]

South DubbedSouth Dubbed WEB-DL 1080p

IMDB: /10 votes

, , ,

Report error

Aradhana (1987) - 1080p - WebDL - x264 - AAC [xDM]

Aradhana (1987) – 1080p – WebDL – x264 – AAC [xDM] 

Complete name : Aradhana (1987) - 1080p - WebDL - x264 - AAC [xDM].mkv
Format : Matroska
Format version : Version 4 / Version 2
File size : 4.21 GiB
Duration : 2 h 19 min
Overall bit rate : 4 318 kb/s
Encoded date : UTC 2016-08-06 06:46:42
Writing application : mkvmerge v9.3.1 ('Mask Machine') 64bit
Writing library : libebml v1.3.4 + libmatroska v1.4.5

Video
ID : 1
Format : AVC
Format/Info : Advanced Video Codec
Format profile : [email protected]
Format settings, CABAC : Yes
Format settings, ReFrames : 1 frame
Format settings, GOP : M=1, N=25
Codec ID : V_MPEG4/ISO/AVC
Duration : 2 h 19 min
Bit rate mode : Constant
Bit rate : 4 254 kb/s
Nominal bit rate : 4 500 kb/s
Width : 1 920 pixels
Height : 1 080 pixels
Display aspect ratio : 16:9
Frame rate mode : Constant
Frame rate : 25.000 FPS
Color space : YUV
Chroma subsampling : 4:2:0
Bit depth : 8 bits
Scan type : Progressive
Bits/(Pixel*Frame) : 0.082
Stream size : 4.14 GiB (99%)
Title : xDM
Language : Telugu
Default : Yes
Forced : No

Audio
ID : 2
Format : AAC
Format/Info : Advanced Audio Codec
Format profile : LC
Codec ID : A_AAC
Duration : 2 h 19 min
Bit rate : 61.4 kb/s
Channel(s) : 2 channels
Channel positions : Front: L R
Sampling rate : 48.0 kHz
Frame rate : 46.875 FPS (1024 spf)
Compression mode : Lossy
Stream size : 61.2 MiB (1%)
Title : xDM
Language : Telugu
Default : Yes
Forced : No 
  
Aradhana (1987) - 1080p - WebDL - x264 - AAC [xDM] Aradhana (1987) - 1080p - WebDL - x264 - AAC [xDM] Aradhana (1987) - 1080p - WebDL - x264 - AAC [xDM]

*
VODLOCKER
*
*
*
*
*
 

 

No links available
No downloads available

Genres

Related movies

Watch Dragon ball super