Remember Me
A password will be e-mailed to you.
Please enter your username or email address. You will receive a link to create a new password via email.
Cancel
PerfectHDMovies.me

Andron 2015 720p WEB-DL XviD AC3-FGT 3.5 Gb

Andròn - The Black Labyrinth    

N/A N/A HollywoodHollywood WEB-DL 720p

N/A
IMDB: N/A/10 N/A votes

, , ,

N/A

Italy

Report error

Andron 2015 720p WEB-DL XviD AC3-FGT

Andron 2015 720p WEB-DL XviD AC3-FGT

Video
ID                                       : 0
Format                                   : MPEG-4 Visual
Format profile                           : [email protected]
Format settings, BVOP                    : No
Format settings, QPel                    : No
Format settings, GMC                     : No warppoints
Format settings, Matrix                  : Default (H.263)
Codec ID                                 : XVID
Codec ID/Hint                            : XviD
Duration                                 : 1h 36mn
Bit rate                                 : 4 874 Kbps
Width                                    : 1 280 pixels
Height                                   : 528 pixels
Display aspect ratio                     : 2.40:1
Frame rate                               : 23.976 fps
Color space                              : YUV
Chroma subsampling                       : 4:2:0
Bit depth                                : 8 bits
Scan type                                : Progressive
Compression mode                         : Lossy
Bits/(Pixel*Frame)                       : 0.301
Stream size                              : 3.28 GiB (93%)
Writing library                          : Lavc57.16.101

Audio
ID                                       : 1
Format                                   : AC-3
Format/Info                              : Audio Coding 3
Mode extension                           : CM (complete main)
Format settings, Endianness              : Big
Codec ID                                 : 2000
Duration                                 : 1h 36mn
Bit rate mode                            : Constant
Bit rate                                 : 384 Kbps
Channel(s)                               : 6 channels
Channel positions                        : Front: L C R, Side: L R, LFE
Sampling rate                            : 48.0 KHz
Frame rate                               : 31.250 fps (1536 spf)
Compression mode                         : Lossy
Stream size                              : 264 MiB (7%)
Alignment                                : Aligned on interleaves
Interleave, duration                     : 42 ms (1.00 video frame)
Interleave, preload duration             : 512 ms

 

Andron 2015 720p WEB-DL XviD AC3-FGT Andron 2015 720p WEB-DL XviD AC3-FGT Andron 2015 720p WEB-DL XviD AC3-FGT

LETWATACH
*
*
*
*
*
*
GO4UP 
No links available
No downloads available

Genres

Related movies

Watch Dragon ball super