Remember Me
A password will be e-mailed to you.
Please enter your username or email address. You will receive a link to create a new password via email.
Cancel
PerfectHDMovies.me

Amit Sahni Ki List 2014 Hindi 480p HDRip PHDM

Amit Sahni Ki List    

N/A 110 min BollywoodBollywood 300MB Movies

5.6
IMDB: 5.6/10 268 votes

, , ,

N/A

India

Report error

 

Amit Sahni Ki List 2014 Hindi 480p HDRip PHDM

Amit Sahni Ki List 2014 Hindi 480p HDRip PHDM

Format : Matroska
Format version : Version 4 / Version 2
File size : 316 MiB
Duration : 1 h 39 min
Overall bit rate : 444 kb/s


Video
ID : 1
Format : AVC
Format/Info : Advanced Video Codec
Format profile : [email protected]
Format settings, CABAC : Yes
Format settings, ReFrames : 4 frames
Codec ID : V_MPEG4/ISO/AVC
Duration : 1 h 39 min
Bit rate : 410 kb/s
Width : 720 pixels
Height : 306 pixels
Display aspect ratio : 2.35:1
Frame rate mode : Constant
Frame rate : 23.976 (24000/1001) FPS
Color space : YUV
Chroma subsampling : 4:2:0
Bit depth : 8 bits
Scan type : Progressive
Bits/(Pixel*Frame) : 0.078
Stream size : 292 MiB (92%)
Writing library : x264 core 142 r2479 dd79a61
Default : Yes
Forced : No
Color range : Limited
Color primaries : BT.709
Transfer characteristics : BT.709
Matrix coefficients : BT.709

Audio
ID : 2
Format : AAC
Format/Info : Advanced Audio Codec
Format profile : HE-AAC / LC
Codec ID : A_AAC
Duration : 1 h 39 min
Bit rate : 32.0 kb/s
Channel(s) : 2 channels
Channel positions : Front: L R
Sampling rate : 22.05 kHz / 11.025 kHz
Frame rate : 10.767 FPS (1024 spf)
Compression mode : Lossy
Delay relative to video : -229 ms
Stream size : 22.8 MiB (7%)
Title : PHDM
Default : Yes
Forced : No

Text
ID : 3
Format : UTF-8
Codec ID : S_TEXT/UTF8
Codec ID/Info : UTF-8 Plain Text
Duration : 1 h 29 min
Bit rate : 115 b/s
Count of elements : 1306
Stream size : 76.0 KiB (0%)
Default : Yes
Forced : No
No links available
No downloads available

Genres

Related movies

Watch Dragon ball super