Remember Me
A password will be e-mailed to you.
Please enter your username or email address. You will receive a link to create a new password via email.
Cancel
PerfectHDMovies.me

Amal (2007) 1080p Webrip x264 AC3 5.1 ESub -DDR 3.25GB

Amal    

N/A 101 min BollywoodBollywood WEB-DL 1080p

7.6
IMDB: 7.6/10 1,245 votes

, , ,

5 wins & 5 nominations.

Canada

Report error

amal-2007-1080p-webrip-x264-ac3-5-1-esub-ddr-3-25gb

Amal (2007) 1080p Webrip x264 AC3 5.1 ESub -DDR 3.25GB

Specs:
Source: Netflix Rip @ DDR

Format : Matroska
Format version : Version 4 / Version 2
File size : 3.25 GiB
Duration : 1 h 40 min
Overall bit rate : 4 632 kb/s


Video
ID : 1
Format : AVC
Format/Info : Advanced Video Codec
Format profile : [email protected]
Format settings, CABAC : Yes
Format settings, ReFrames : 4 frames
Codec ID : V_MPEG4/ISO/AVC
Duration : 1 h 40 min
Bit rate : 3 990 kb/s
Width : 1 920 pixels
Height : 1 080 pixels
Display aspect ratio : 16:9
Frame rate mode : Constant
Frame rate : 24.000 FPS
Color space : YUV
Chroma subsampling : 4:2:0
Bit depth : 8 bits
Scan type : Progressive
Bits/(Pixel*Frame) : 0.080
Stream size : 2.80 GiB (86%)
Default : Yes
Forced : No
Color range : Limited
Color primaries : BT.709


Audio
ID : 2
Format : AC-3
Format/Info : Audio Coding 3
Mode extension : CM (complete main)
Format settings, Endianness : Big
Codec ID : A_AC3
Duration : 1 h 40 min
Bit rate mode : Constant
Bit rate : 640 kb/s
Channel(s) : 6 channels
Channel positions : Front: L C R, Side: L R, LFE
Sampling rate : 48.0 kHz
Frame rate : 31.250 FPS (1536 spf)
Compression mode : Lossy
Delay relative to video : 24 ms
Stream size : 460 MiB (14%)
Language : Hindi
Default : Yes
Forced : No
  
Amal (2007) 1080p Webrip x264 AC3 5.1 ESub -DDR 3.25GB Amal (2007) 1080p Webrip x264 AC3 5.1 ESub -DDR 3.25GB Amal (2007) 1080p Webrip x264 AC3 5.1 ESub -DDR 3.25GB

 

LETWATCH
*
*
*
*
*
GO4UP 
 

 

No links available
No downloads available

Genres

Related movies

Watch Dragon ball super