Remember Me
A password will be e-mailed to you.
Please enter your username or email address. You will receive a link to create a new password via email.
Cancel
PerfectHDMovies.me

Airlift (2016) – 720p – DVD-Rip – Hindi – x264 – AC3 – 5.1 – Mafiaking – M2Tv

Airlift    

N/A 130 min BollywoodBollywood DVDRip 720p

9.0
IMDB: 9.0/10 23,540 votes

, , ,

N/A

India

Report error

General
 Format : Matroska
 Format version : Version 4 / Version 2
 File size : 939 MiB
 Duration : 1h 56mn
 Overall bit rate : 1 126 Kbps
 
 
 Video
 ID : 1
 Format : AVC
 Format/Info : Advanced Video Codec
 Format profile : [email protected]
 Format settings, CABAC : Yes
 Format settings, ReFrames : 4 frames
 Codec ID : V_MPEG4/ISO/AVC
 Duration : 1h 56mn
 Bit rate : 900 Kbps
 Width : 1 280 pixels
 Height : 544 pixels
 Display aspect ratio : 2.35:1
 Frame rate mode : Constant
 Frame rate : 29.970 fps
 Color space : YUV
 Chroma subsampling : 4:2:0
 Bit depth : 8 bits
 Scan type : Progressive
 Bits/(Pixel*Frame) : 0.043
 Stream size : 734 MiB (78%)
 Title : Mafiaking
 Language : Hindi
 Default : Yes
 Forced : No
 
 Audio
 ID : 2
 Format : AC-3
 Format/Info : Audio Coding 3
 Mode extension : CM (complete main)
 Format settings, Endianness : Big
 Codec ID : A_AC3
 Duration : 1h 56mn
 Bit rate mode : Constant
 Bit rate : 224 Kbps
 Channel(s) : 6 channels
 Channel positions : Front: L C R, Side: L R, LFE
 Sampling rate : 48.0 KHz
 Compression mode : Lossy
 Stream size : 187 MiB (20%)
 Title : Mafiaking
 Language : Hindi
 Default : Yes
 Forced : No
LETWATACH
USERSCLOUD
*
*
*
MULTIUP
*
*
 

 

No links available
No downloads available

Genres

Related movies

Watch Dragon ball super