Remember Me
A password will be e-mailed to you.
Please enter your username or email address. You will receive a link to create a new password via email.
Cancel
PerfectHDMovies.me

Airlift (2016) – 1CD – DesiSCR-Rip – Hindi – x264 – MP3 – Mafiaking – M2Tv 700 MB

Airlift    

N/A N/A BollywoodBollywood Pre-Releases (Latest)

N/A
IMDB: N/A/10 N/A votes

, , ,

N/A

India

Report error

Quote  Quote:

Ratings: 9.5/10

GENRE: Drama, History, Thriller

General
Unique ID : 229600685047677987247960074658433807942 (0xACBB7BC3EFED0F46A192E02F1F293646)
Complete name : Airlift (2016) – 1CD – DesiSCR-Rip – Hindi – x264 – MP3 – Mafiaking – M2Tv.mkv
Format : Matroska
Format version : Version 4 / Version 2
File size : 706 MiB
Duration : 2h 6mn
Overall bit rate : 781 Kbps
Movie name : Airlift (2016) – 1CD – DesiSCR-Rip – Hindi – x264 – MP3 – Mafiaking – M2Tv
Encoded date : UTC 2016-01-24 17:07:03
Writing application : mkvmerge v7.6.0 (‘Garden of Dreams’) 64bit built on Feb 8 2015 13:04:34
Writing library : libebml v1.3.1 + libmatroska v1.4.2

Video
ID : 1
Format : AVC
Format/Info : Advanced Video Codec
Format profile : [email protected]
Format settings, CABAC : Yes
Format settings, ReFrames : 4 frames
Codec ID : V_MPEG4/ISO/AVC
Duration : 2h 6mn
Bit rate : 700 Kbps
Width : 640 pixels
Height : 272 pixels
Display aspect ratio : 2.35:1
Frame rate mode : Constant
Frame rate : 15.000 fps
Color space : YUV
Chroma subsampling : 4:2:0
Bit depth : 8 bits
Scan type : Progressive
Bits/(Pixel*Frame) : 0.268
Stream size : 620 MiB (88%)
Title : Mafiaking
Language : Hindi
Default : Yes
Forced : No

Audio
ID : 2
Format : MPEG Audio
Format version : Version 1
Format profile : Layer 3
Mode : Joint stereo
Mode extension : MS Stereo
Codec ID : A_MPEG/L3
Codec ID/Hint : MP3
Duration : 2h 6mn
Bit rate mode : Constant
Bit rate : 80.0 Kbps
Channel(s) : 2 channels
Sampling rate : 32.0 KHz
Compression mode : Lossy
Stream size : 72.3 MiB (10%)
Title : Mafiaking
Writing library : LAME3.99r
Language : Hindi
Default : Yes
Forced : No

SAMPLE WITH IN TORRENT












*
*
*
*
*
No links available
No downloads available

Genres

Related movies

Watch Dragon ball super