Remember Me
A password will be e-mailed to you.
Please enter your username or email address. You will receive a link to create a new password via email.
Cancel
PerfectHDMovies.me

Airlift {2015} DesiScr Rip x264 AC3 {Team DUS} – jnmjy 1.45 GB

Airlift    

N/A N/A BollywoodBollywood Pre-Releases (Latest)

N/A
IMDB: N/A/10 N/A votes

, , ,

N/A

India

Report error

RIP INFO:

                                                                                                                                    Code  Code:
Year.............: 2015
Source: A DUS Exclusive!
Ripper...........: jnmjy

General
Format                                   : Matroska
Format version                           : Version 2
File size                                : 1.45 GiB
Duration                                 : 2h 6mn
Overall bit rate                         : 1 639 Kbps
Encoded date                             : UTC 2016-01-23 03:48:21
Writing application                      : mkvmerge v8.5.2 ('Crosses') 32bit
Writing library                          : libebml v1.3.3 + libmatroska v1.4.4
DURATION                                 : 02:06:24.448000000
NUMBER_OF_FRAMES                         : 237014
NUMBER_OF_BYTES                          : 182026752
_STATISTICS_WRITING_APP                  : mkvmerge v8.5.2 ('Crosses') 32bit
_STATISTICS_WRITING_DATE_UTC             : 2016-01-23 03:48:21
_STATISTICS_TAGS                         : BPS DURATION NUMBER_OF_FRAMES NUMBER_OF_BYTES

Video
ID                                       : 1
Format                                   : AVC
Format/Info                              : Advanced Video Codec
Format profile                           : [email protected]
Format settings, CABAC                   : Yes
Format settings, ReFrames                : 4 frames
Codec ID                                 : V_MPEG4/ISO/AVC
Duration                                 : 2h 6mn
Bit rate                                 : 1 446 Kbps
Width                                    : 640 pixels
Height                                   : 272 pixels
Display aspect ratio                     : 2.35:1
Frame rate mode                          : Constant
Frame rate                               : 23.976 fps
Color space                              : YUV
Chroma subsampling                       : 4:2:0
Bit depth                                : 8 bits
Scan type                                : Progressive
Bits/(Pixel*Frame)                       : 0.346
Stream size                              : 1.25 GiB (86%)
Writing library                          : x264 core 148 r2638 7599210

Audio
ID                                       : 2
Format                                   : AC-3
Format/Info                              : Audio Coding 3
Mode extension                           : CM (complete main)
Format settings, Endianness              : Big
Codec ID                                 : A_AC3
Duration                                 : 2h 6mn
Bit rate mode                            : Constant
Bit rate                                 : 192 Kbps
Channel(s)                               : 2 channels
Channel positions                        : Front: L R
Sampling rate                            : 48.0 KHz
Compression mode                         : Lossy
Stream size                              : 174 MiB (12%)
Default                                  : Yes
Forced                                   : No

Sample: https://www.sendspace.com/file/x3w8fj

SCREENSHOTS:








*
*
*
*
*
No links available
No downloads available

Genres

Related movies

Watch Dragon ball super