Remember Me
A password will be e-mailed to you.
Please enter your username or email address. You will receive a link to create a new password via email.
Cancel
PerfectHDMovies.me

Act Of Valor 2012 Dual Audio Hindi 480p BluRay PHDM

Act of Valor    

R 110 min Dual AudioDual Audio 300MB Movies

6.5
IMDB: 6.5/10 57,965 votes

,

, , ,

Nominated for 1 Golden Globe. Another 1 win & 6 nominations.

USA

Report error

 

Act Of Valor 2012 Dual Audio Hindi 480p BluRay PHDM

Format : Matroska
Format version : Version 4 / Version 2
File size : 344 MiB
Duration : 1 h 50 min
Overall bit rate : 436 kb/s

Video
ID : 1
Format : AVC
Format/Info : Advanced Video Codec
Format profile : [email protected]
Format settings, CABAC : Yes
Format settings, ReFrames : 4 frames
Codec ID : V_MPEG4/ISO/AVC
Duration : 1 h 50 min
Bit rate : 370 kb/s
Width : 720 pixels
Height : 302 pixels
Display aspect ratio : 2.40:1
Frame rate mode : Constant
Frame rate : 23.976 (24000/1001) FPS
Color space : YUV
Chroma subsampling : 4:2:0
Bit depth : 8 bits
Scan type : Progressive
Bits/(Pixel*Frame) : 0.071
Stream size : 292 MiB (85%)
Writing library : x264 core 142 r2479 dd79a61
Default : Yes
Forced : No
Color range : Limited
Audio #1
ID : 2
Format : AAC
Format/Info : Advanced Audio Codec
Format profile : HE-AAC / LC
Codec ID : A_AAC
Duration : 1 h 50 min
Bit rate : 32.0 kb/s
Channel(s) : 2 channels
Channel positions : Front: L R
Sampling rate : 22.05 kHz / 11.025 kHz
Frame rate : 10.767 FPS (1024 spf)
Compression mode : Lossy
Delay relative to video : -229 ms
Stream size : 25.2 MiB (7%)
Title : PHDM
Language : Hindi
Default : Yes
Forced : No

Audio #2
ID : 3
Format : AAC
Format/Info : Advanced Audio Codec
Format profile : HE-AAC / LC
Codec ID : A_AAC
Duration : 1 h 50 min
Bit rate : 32.0 kb/s
Channel(s) : 2 channels
Channel positions : Front: L R
Sampling rate : 22.05 kHz / 11.025 kHz
Frame rate : 10.767 FPS (1024 spf)
Compression mode : Lossy
Delay relative to video : -229 ms
Stream size : 25.2 MiB (7%)
Title : PHDM
Language : English
Default : No
Forced : No

Text
ID : 4
Format : UTF-8
Codec ID : S_TEXT/UTF8
Codec ID/Info : UTF-8 Plain Text
Duration : 1 h 49 min
Bit rate : 47 b/s
Count of elements : 947
Stream size : 38.1 KiB (0%)
Default : Yes
Forced : No

No links available
No downloads available

Genres

Related movies

Watch Dragon ball super