Remember Me
A password will be e-mailed to you.
Please enter your username or email address. You will receive a link to create a new password via email.
Cancel
PerfectHDMovies.me

A Flying Jatt (2016) DesiSCR-Rip -720p – Hindi – x264 – AC3 – 5.1 DUS 2.20 GB

A Flying Jatt    

N/A 151 min BollywoodBollywood Pre-Releases (Latest)

N/A
IMDB: N/A/10 N/A votes

, , ,

N/A

India

Report error

A Flying Jatt (2016) DesiSCR-Rip -720p – Hindi – x264 – AC3 – 5.1 DUS 2.20 GB

General
Complete name               : A Flying Jatt (2016) DesiSCR-Rip -720p - Hindi - x264 - AC3 - 5.1 DUS.mkv
Format                      : Matroska
Format version              : Version 2
File size                   : 2.20 GiB
Duration                    : 2 h 29 min
Overall bit rate            : 2 099 kb/s
Encoded By                  : S3AR3

Video
ID                          : 1
Format                      : AVC
Format/Info                 : Advanced Video Codec
Format profile              : [email protected]
Format settings, CABAC      : Yes
Format settings, ReFrames   : 4 frames
Codec ID                    : V_MPEG4/ISO/AVC
Duration                    : 2 h 29 min
Bit rate                    : 1 713 kb/s
Width                       : 1 280 pixels
Height                      : 544 pixels
Display aspect ratio        : 2.35:1
Frame rate mode             : Constant
Frame rate                  : 29.970 (30000/1001) FPS
Color space                 : YUV
Chroma subsampling          : 4:2:0
Bit depth                   : 8 bits
Scan type                   : Progressive
Bits/(Pixel*Frame)          : 0.082
Stream size                 : 1.79 GiB (82%)
Writing library             : x264 core
Default                     : Yes
Forced                      : No

Audio
ID                          : 2
Format                      : AC-3
Format/Info                 : Audio Coding 3
Mode extension              : CM (complete main)
Format settings, Endianness : Big
Codec ID                    : A_AC3
Duration                    : 2 h 29 min
Bit rate mode               : Constant
Bit rate                    : 384 kb/s
Channel(s)                  : 6 channels
Channel positions           : Front: L C R, Side: L R, LFE
Sampling rate               : 48.0 kHz
Frame rate                  : 31.250 FPS (1536 spf)
Compression mode            : Lossy
Stream size                 : 411 MiB (18%)
Language                    : new
Default                     : Yes
Forced                      : No

   
 A Flying Jatt (2016) DesiSCR-Rip -720p - Hindi - x264 - AC3 - 5.1 DUS 2.20 GBA Flying Jatt (2016) DesiSCR-Rip -720p - Hindi - x264 - AC3 - 5.1 DUS 2.20 GBA Flying Jatt (2016) DesiSCR-Rip -720p - Hindi - x264 - AC3 - 5.1 DUS 2.20 GB

 

*
*
*
MULTIUP
*
*
 

 

No links available
No downloads available

Genres

Related movies

Watch Dragon ball super