Remember Me
A password will be e-mailed to you.
Please enter your username or email address. You will receive a link to create a new password via email.
Cancel
PerfectHDMovies.me

8 Heads In a Duffel Bag (1997) 720p WEB-DL x264 [Dual Audio] [Hindi 2.0 – English] – monu987 1.91 GB

8 Heads in a Duffel Bag    

R 95 min Dual AudioDual Audio WEB-DL 720p

5.2
IMDB: 5.2/10 7,855 votes

, , ,

1 win.

USA, UK

Report error

 

8 Heads In a Duffel Bag (1997) 720p WEB-DL x264 [Dual Audio] [Hindi 2.0 – English] – monu987
Format : Matroska
Format version : Version 4 / Version 2
File size : 1.88 GiB
Duration : 1h 35mn
Overall bit rate : 2 825 Kbps




Video
ID : 1
Format : AVC
Format/Info : Advanced Video Codec
Format profile : [email protected]
Format settings, CABAC : Yes
Format settings, ReFrames : 5 frames
Codec ID : V_MPEG4/ISO/AVC
Duration : 1h 35mn
Bit rate : 2 503 Kbps
Width : 1 280 pixels
Height : 672 pixels
Display aspect ratio : 1.905
Frame rate mode : Constant
Frame rate : 23.976 fps
Color space : YUV
Chroma subsampling : 4:2:0
Bit depth : 8 bits
Scan type : Progressive
Bits/(Pixel*Frame) : 0.121
Stream size : 1.63 GiB (87%)
Title : monu987
Writing library : x264 core 142 r2431 ac76440
Color range : Limited
Color primaries : Generic film
Transfer characteristics : BT.709
Matrix coefficients : BT.709


Audio #1
ID : 2
Format : AC-3
Format/Info : Audio Coding 3
Mode extension : CM (complete main)
Format settings, Endianness : Big
Codec ID : A_AC3
Duration : 1h 35mn
Bit rate mode : Constant
Bit rate : 128 Kbps
Channel(s) : 2 channels
Channel positions : Front: L R
Sampling rate : 44.1 KHz
Bit depth : 16 bits
Compression mode : Lossy
Stream size : 87.2 MiB (5%)
Title : monu987
Language : Hindi
Default : Yes
Forced : No


Audio #2
ID : 3
Format : AC-3
Format/Info : Audio Coding 3
Mode extension : CM (complete main)
Format settings, Endianness : Big
Codec ID : A_AC3
Duration : 1h 35mn
Bit rate mode : Constant
Bit rate : 192 Kbps
Channel(s) : 6 channels
Channel positions : Front: L C R, Side: L R, LFE
Sampling rate : 48.0 KHz
Bit depth : 16 bits
Compression mode : Lossy
Stream size : 131 MiB (7%)
Title : monu987
Language : English
Default : No
Forced : No


Hindi Audio Perfect Synced by Me

Note: No Watermarks/Tags in Audio & Video ;)…. Enjoy Movie:)




05fbbc2.md.png 11.md.png
0834d0f.md.png 0194b15.md.png
04ad3b9.md.png 02d2cfd.md.png
12.md.png 07df27e.md.png
0391377.md.png 10.md.png
06d05cf.md.png 14.md.png
09847df.md.png 13.md.png




Special Thanks To – TMX, Invincible,Sadhu’s-HD,Sher-Khan,sbaz44,TBI,DrStar,Dredd,David,Shawn-James, Abu-HamzaRespect To All Teams – HDDR,Gpsoft,IcTv,SDR,HKRG,TEAM warriors,TeamTNT,M2TV,Hon3y,Team-Exd,XMR,TMRG,PerfectHDMovies and other past-present teamsAlso Thanks To All Hollywood Hindi Dubbed Movie Lovers For There Appreciation (y)

 

No links available
No downloads available

Genres

Related movies

Watch Dragon ball super