7 Hours To Go (2016) x264 DVDRip AC3 5.1 ESub -DDR 1.48GB

7 Hours To Go (2016) x264 DVDRip AC3 5.1 ESub -DDR 1.48GB
Director

7 Hours To Go (2016) x264 DVDRip AC3 5.1 ESub -DDR 1.48GB

7 Hours To Go (2016) x264 DVDRip AC3 5.1 ESub -DDR 1.48GB

[ Info ]

Source : DVD9 @ DDR
General
Format : Matroska
File size : 1.46 GiB
Duration : 1 h 54 min
Overall bit rate : 1 837 kb/s

Video
Format : AVC
Format/Info : Advanced Video Codec
Format profile : [email protected]
Format settings, CABAC : Yes
Format settings, ReFrames : 16 frames
Codec ID : V_MPEG4/ISO/AVC
Duration : 1 h 54 min
Bit rate : 1 385 kb/s
Width : 720 pixels
Height : 304 pixels
Display aspect ratio : 2.35:1
Frame rate mode : Constant
Frame rate : 23.976 (24000/1001) FPS
Color space : YUV
Chroma subsampling : 4:2:0
Bit depth : 8 bits
Scan type : Progressive
Bits/(Pixel*Frame) : 0.264
Stream size : 1.10 GiB (75%)
Color primaries : BT.601 NTSC
Transfer characteristics : BT.470 System B, BT.470 System G
Matrix coefficients : BT.601

Audio
Format : AC-3
Format/Info : Audio Coding 3
Mode extension : CM (complete main)
Format settings, Endianness : Big
Codec ID : A_AC3
Duration : 1 h 54 min
Bit rate mode : Constant
Bit rate : 448 kb/s
Channel(s) : 6 channels
Channel positions : Front: L C R, Side: L R, LFE
Sampling rate : 48.0 kHz
Frame rate : 31.250 FPS (1536 spf)
Compression mode : Lossy
Delay relative to video : 15 ms
Stream size : 366 MiB (24%)
Language : Hindi
Default : Yes
Forced : No 

Sep 30, 2016 - Posted by Jasleev -

Comments are closed.