Remember Me
A password will be e-mailed to you.
Please enter your username or email address. You will receive a link to create a new password via email.
Cancel
PerfectHDMovies.me

300 (2006) BDRip 1080p Dual Audio [ Hindi ORG DVD DD 2.0- Eng 5.1] DARK SHADOW

300    

R 117 min Dual AudioDual Audio Blu-Ray 1080p

7.8
IMDB: 7.8/10 572,078 votes

, , ,

15 wins & 41 nominations.

USA

Report error

image

300 (2006) BDRip 1080p Dual Audio [ Hindi ORG DVD DD 2.0- Eng 5.1] DARK SHADOW

http://www.imdb.com/title/tt0416449

 GENERAL INFO
Format: Matroska
File Size: 3.64 GiB
Overall Bitrate: 4 471 Kbps
Duration: 1h 56mn
Sample: Included
SubTitles: English


VIDEO INFO
Format/Info: Advanced Video Codec
Codec ID: V_MPEG4/AVC
Duration: 1h 56mn
Bitrate: 3 800 Kbps
Resolution: 1 920 X 800 pixels
Aspect ratio(AR): 2.40:1
Frame Rate Mode: Constant
Frame Rate: 23.976 fps
Stream Size: 3.02 GiB (83%)
Title: 300 (2006)
Default: Yes
Forced: No


HINDI AUDIO INFO
Format: AC-3
Format/Info: Audio Coding 3
Codec ID: A_AC3
Duration: 1h 56mn
Bitrate Mode: Constant
Bitrate: 224 Kbps
Channel(s): 2 Channels
Channel positions: Front: L C
Sampling rate: 48.0 KHz
Bit depth: 16 bits
Stream size: 187 MiB (5%)
Title: Org Hindi DD 2.0 224Kbps
language: Hindi
Default: Yes
Forced: No


ENGLISH AUDIO INFO
Format: AC-3
Format/Info: Audio Coding 3
Codec ID: A_AC3
Duration: 1h 56mn
Bitrate Mode: Constant
Bitrate: 448 Kbps
Channel(s): 6 Channels
Channel positions: Front: L C R, Side: L R, LFE
Sampling rate: 48.0 KHz
Bit depth: 16 bits
Stream size: 374 MiB (10%)
Title: Org English DD 5.1 448Kbps
language: English
Default: No
Forced: No


SUBTITLE
Format: UTF-8
Codec ID: S_TEXT/UTF8
Codec ID/Info: UTF-8 Plain Text
Title English SRT
Language: English
Default: Yes
Forced: No
 300_2006_mkv_001694233.jpg
300_2006_mkv_003326072.jpg
300_2006_mkv_000633048.jpg
300_2006_mkv_004443063.jpg
LETWATACH
*
VODLOCKER
*
*
*
MULTIUP
*
*
 

 

No links available
No downloads available

Genres

Related movies

Watch Dragon ball super