Remember Me
A password will be e-mailed to you.
Please enter your username or email address. You will receive a link to create a new password via email.
Cancel
PerfectHDMovies.me

30 Minutes or Less (2011) BDRIP x264 Hindi Audio Only – Lesnar 336 MiB

30 Minutes or Less    

R 83 min Dual AudioDual Audio Blu-Ray 720p

6.1
IMDB: 6.1/10 78,298 votes

, , ,

N/A

Germany, Canada, USA

Report error

30 Minutes or Less (2011) BDRIP x264 Hindi Audio Only - Lesnar

30 Minutes or Less (2011) BDRIP x264 Hindi Audio Only – Lesnar

Unique ID : 243462214584463099358673429920475235870 (0xB7291DEFBF54DACBA0B88A77F3C3C61E)
Complete name : E:\m,\30 Minutes or Less (2011) BDRIP x264 Hindi Audio Only - Lesnar.mkv
Format : Matroska
Format version : Version 4 / Version 2
File size : 336 MiB
Duration : 1 h 23 min
Overall bit rate : 566 kb/s
Encoded date : UTC 2016-09-15 09:16:25
Writing application : mkvmerge v9.3.1 ('Mask Machine') 32bit
Writing library : libebml v1.3.4 + libmatroska v1.4.5

Video
ID : 1
Format : AVC
Format/Info : Advanced Video Codec
Format profile : [email protected]
Format settings, CABAC : No
Format settings, ReFrames : 3 frames
Format settings, GOP : M=1, N=60
Codec ID : V_MPEG4/ISO/AVC
Duration : 1 h 23 min
Bit rate : 500 kb/s
Width : 640 pixels
Height : 268 pixels
Display aspect ratio : 2.40:1
Original display aspect ratio : 2.40:1
Frame rate mode : Constant
Frame rate : 23.976 (23976/1000) FPS
Color space : YUV
Chroma subsampling : 4:2:0
Bit depth : 8 bits
Scan type : Progressive
Bits/(Pixel*Frame) : 0.122
Stream size : 297 MiB (88%)
Title : Lesnar
Writing library : x264 core 142 r2431 a5831aa
Encoding settings : cabac=0 / ref=3 / deblock=1:0:0 / analyse=0x1:0x111 / me=hex / subme=7 / psy=1 / psy_rd=1.00:0.00 / mixed_ref=1 / me_range=16 / chroma_me=1 / trellis=1 / 8x8dct=0 / cqm=0 / deadzone=21,11 / fast_pskip=1 / chroma_qp_offset=-2 / threads=4 / lookahead_threads=1 / sliced_threads=0 / nr=0 / decimate=1 / interlaced=0 / bluray_compat=0 / constrained_intra=0 / bframes=0 / weightp=0 / keyint=60 / keyint_min=6 / scenecut=0 / intra_refresh=0 / rc_lookahead=40 / rc=2pass / mbtree=1 / bitrate=500 / ratetol=1.0 / qcomp=0.60 / qpmin=10 / qpmax=51 / qpstep=4 / cplxblur=20.0 / qblur=0.5 / ip_ratio=1.40 / aq=1:1.00
Language : English
Default : Yes
Forced : No

Audio
ID : 2
Format : AAC
Format/Info : Advanced Audio Codec
Format profile : LC
Codec ID : A_AAC
Duration : 1 h 23 min
Bit rate : 63.8 kb/s
Channel(s) : 1 channel
Channel positions : Front: C
Sampling rate : 44.1 kHz
Frame rate : 43.066 FPS (1024 spf)
Compression mode : Lossy
Stream size : 37.9 MiB (11%)
Title : Lesnar
Language : Hindi
Default : Yes
Forced : No

 
cdcf8080bc630 Minutes or Less (2011) BDRIP x264 Hindi Audio Only - Lesnar45db72f7a55f01a9abdce.th.png 30 Minutes or Less (2011) BDRIP x264 Hindi Audio Only - Lesnar 30 Minutes or Less (2011) BDRIP x264 Hindi Audio Only - Lesnar
LETWATACH
*
*
*
*
*
*
*
GO4UP 
 
No links available
No downloads available

Genres

Related movies

Watch Dragon ball super