2 Guns (2013) 720p BluRay x264 [Dual-Audio][English DD 5.1 + Hindi DD 2.0] – Mafiaking – M2Tv 1GB

2 Guns (2013) 720p BluRay x264 [Dual-Audio][English DD 5.1 + Hindi DD 2.0] - Mafiaking - M2Tv 1GB

2 Guns (2013) 720p BluRay x264 [Dual-Audio][English DD 5.1 + Hindi DD 2.0] – Mafiaking – M2Tv 1GB

General
Unique ID : 245869824142471402432317368992999193208 (0xB8F8CE40A20AAFE0BD87ED88E170BA78)
Complete name : 2 Guns (2013) 720p BluRay x264 [Dual-Audio][English DD 5.1 + Hindi DD 2.0] - Mafiaking - M2Tv.mkv
Format : Matroska
Format version : Version 4 / Version 2
File size : 1 018 MiB
Duration : 1h 49mn
Overall bit rate : 1 303 Kbps
Movie name : 2 Guns (2013) 720p BluRay x264 [Dual-Audio][English DD 5.1 + Hindi DD 2.0] - Mafiaking - M2Tv
Encoded date : UTC 2016-06-27 20:43:04
Writing application : mkvmerge v8.3.0 ('Over the Horizon') 64bit
Writing library : libebml v1.3.1 + libmatroska v1.4.2

Video
ID : 1
Format : AVC
Format/Info : Advanced Video Codec
Format profile : [email protected]
Format settings, CABAC : Yes
Format settings, ReFrames : 3 frames
Codec ID : V_MPEG4/ISO/AVC
Duration : 1h 49mn
Bit rate : 950 Kbps
Width : 1 280 pixels
Height : 534 pixels
Display aspect ratio : 2.40:1
Frame rate mode : Constant
Frame rate : 23.976 fps
Color space : YUV
Chroma subsampling : 4:2:0
Bit depth : 8 bits
Scan type : Progressive
Bits/(Pixel*Frame) : 0.058
Stream size : 723 MiB (71%)
Title : Mafiaking
Language : English
Default : Yes
Forced : No

Audio #1
ID : 2
Format : AC-3
Format/Info : Audio Coding 3
Format profile : Dolby Digital
Mode extension : CM (complete main)
Format settings, Endianness : Big
Codec ID : A_AC3
Duration : 1h 49mn
Bit rate mode : Constant
Bit rate : 128 Kbps
Channel(s) : 2 channels
Channel positions : Front: L R
Sampling rate : 48.0 KHz
Compression mode : Lossy
Stream size : 100 MiB (10%)
Title : Mafiaking
Language : Hindi
Default : Yes
Forced : Yes

Audio #2
ID : 3
Format : AC-3
Format/Info : Audio Coding 3
Mode extension : CM (complete main)
Format settings, Endianness : Big
Codec ID : A_AC3
Duration : 1h 49mn
Bit rate mode : Constant
Bit rate : 224 Kbps
Channel(s) : 6 channels
Channel positions : Front: L C R, Side: L R, LFE
Sampling rate : 48.0 KHz
Compression mode : Lossy
Stream size : 175 MiB (17%)
Title : Mafiaking
Language : English
Default : No
Forced : No

    

 
2 Guns (2013) 720p BluRay x264 [Dual-Audio][English DD 5.1 + Hindi DD 2.0] - Mafiaking - M2Tv 1GB2 Guns (2013) 720p BluRay x264 [Dual-Audio][English DD 5.1 + Hindi DD 2.0] - Mafiaking - M2Tv 1GB2 Guns (2013) 720p BluRay x264 [Dual-Audio][English DD 5.1 + Hindi DD 2.0] - Mafiaking - M2Tv 1GB

Advertising

*

*
*
*
*
 
 

 

Jun 29, 2016 - Posted by Jasleev -

Comments are closed.