Remember Me
A password will be e-mailed to you.
Please enter your username or email address. You will receive a link to create a new password via email.
Cancel
PerfectHDMovies.me

[+18] Sorority Boys [2002] 720p WEB-DL x264 [2.0 HINDI – ENG 5.1] Im Loser 1.7GB

Sorority Boys    

R 93 min Dual AudioDual Audio WEB-DL 720p

5.4
IMDB: 5.4/10 11,934 votes

, , ,

1 win & 1 nomination.

USA

Report error

[+18] Sorority Boys [2002] 720p WEB-DL x264 [2.0 HINDI - ENG 5.1] Im Loser

[+18] Sorority Boys [2002] 720p WEB-DL x264 [2.0 HINDI – ENG 5.1] Im Loser 1.7GB

[+18] Sorority Boys [2002] 720p WEB-DL x264 [2.0 HINDI - ENG 5.1] Im Loser
[+18] Sorority Boys [2002] 720p WEB-DL x264 [2.0 HINDI - ENG 5.1] Im Loser

General
Unique ID : 235101282972469371429401227482419125601 (0xB0DEDC2E77F1E8E18F70CC5B752B5D61)
Complete name : C:\Users\home\Desktop\Sorority Boys [2002] 720p WEB-DL x264 [2.0 HINDI ENG 5.1] ® I'm Loser ®\Sorority Boys [2002] 720p WEB-DL x264 [2.0 HINDI ENG 5.1] ® I'm Loser ®.mkv
Format : Matroska
Format version : Version 2
File size : 1.70 GiB
Duration : 1h 33mn
Overall bit rate : 2 604 Kbps
Movie name : Sorority Boys [2002] 720p WEB-DL x264 [2.0 HINDI ENG 5.1] ® I'm Loser ®
Encoded date : UTC 2016-07-10 11:39:39
Writing application : mkvmerge v5.7.0 ('The Whirlwind') built on Jul 8 2012 20:08:51
Writing library : libebml v1.2.3 + libmatroska v1.3.0

Video
ID : 1
Format : AVC
Format/Info : Advanced Video Codec
Format profile : [email protected]
Format settings, CABAC : Yes
Format settings, ReFrames : 4 frames
Muxing mode : Header stripping
Codec ID : V_MPEG4/ISO/AVC
Duration : 1h 33mn
Bit rate : 2 000 Kbps
Width : 1 280 pixels
Height : 688 pixels
Display aspect ratio : 1.85:1
Frame rate mode : Constant
Frame rate : 23.976 fps
Color space : YUV
Chroma subsampling : 4:2:0
Bit depth : 8 bits
Scan type : Progressive
Bits/(Pixel*Frame) : 0.095
Stream size : 1.27 GiB (75%)
Title : Sorority Boys [2002] 720p WEB-DL x264 [2.0 HINDI ENG 5.1] ® I'm Loser ®
Writing library : x264 core 142 r2479 dd79a61
Encoding settings : cabac=1 / ref=3 / deblock=1:0:0 / analyse=0x3:0x113 / me=hex / subme=7 / psy=1 / psy_rd=1.00:0.00 / mixed_ref=1 / me_range=16 / chroma_me=1 / trellis=1 / 8x8dct=1 / cqm=0 / deadzone=21,11 / fast_pskip=1 / chroma_qp_offset=-2 / threads=6 / lookahead_threads=1 / sliced_threads=0 / nr=0 / decimate=1 / interlaced=0 / bluray_compat=0 / constrained_intra=0 / bframes=3 / b_pyramid=2 / b_adapt=1 / b_bias=0 / direct=1 / weightb=1 / open_gop=0 / weightp=2 / keyint=240 / keyint_min=24 / scenecut=40 / intra_refresh=0 / rc_lookahead=40 / rc=2pass / mbtree=1 / bitrate=2000 / ratetol=1.0 / qcomp=0.60 / qpmin=0 / qpmax=69 / qpstep=4 / cplxblur=20.0 / qblur=0.5 / vbv_maxrate=62500 / vbv_bufsize=78125 / nal_hrd=none / filler=0 / ip_ratio=1.40 / aq=1:1.00

Audio #1
ID : 2
Format : AC-3
Format/Info : Audio Coding 3
Mode extension : CM (complete main)
Format settings, Endianness : Big
Muxing mode : Header stripping
Codec ID : A_AC3
Duration : 1h 33mn
Bit rate mode : Constant
Bit rate : 160 Kbps
Channel count : 2 channels
Channel positions : Front: L R
Sampling rate : 48.0 KHz
Bit depth : 16 bits
Compression mode : Lossy
Delay relative to video : 918ms
Stream size : 107 MiB (6%)
Title : ® I'm Loser ®
Language : Hindi
Default : Yes
Forced : No

Audio #2
ID : 3
Format : AC-3
Format/Info : Audio Coding 3
Mode extension : CM (complete main)
Format settings, Endianness : Big
Muxing mode : Header stripping
Codec ID : A_AC3
Duration : 1h 33mn
Bit rate mode : Constant
Bit rate : 448 Kbps
Channel count : 6 channels
Channel positions : Front: L C R, Side: L R, LFE
Sampling rate : 48.0 KHz
Bit depth : 16 bits
Compression mode : Lossy
Stream size : 300 MiB (17%)
Title : ® I'm Loser ®
Language : English
Default : No
Forced : No

No links available
No downloads available

Genres

Related movies

Watch Dragon ball super