Remember Me
A password will be e-mailed to you.
Please enter your username or email address. You will receive a link to create a new password via email.
Cancel
PerfectHDMovies.me

[+18] Parched (2016) – 720p – UNCENSORED – WebHD-Rip – Hindi – x264 – AC3 – 5.1 – ESubs – Mafiaking – M2Tv – ExClusive 982 MiB

BollywoodBollywood WEB-DL 720p

IMDB: /10 votes

Report error

Parched (2016) - 720p - UNCENSORED - WebHD-Rip - Hindi - x264 - AC3 - 5.1 - ESubs - Mafiaking - M2Tv - ExClusive - PerfectHDMovies

Parched (2016) – 720p – UNCENSORED – WebHD-Rip – Hindi – x264 – AC3 – 5.1 – ESubs – Mafiaking – M2Tv – ExClusive

Ratings: 7.5/10

Genere: Drama

General
Unique ID : 171749521378511569469944990763194732138 (0x8135C12E7EAE85ABB7EA71F64F134E6A)
Complete name : [+18] Parched (2016) - 720p - UNCENSORED - WebHD-Rip - Hindi - x264 - AC3 - 5.1 - ESubs - Mafiaking - M2Tv - ExClusive.mkv
Format : Matroska
Format version : Version 4 / Version 2
File size : 982 MiB
Duration : 1 h 56 min
Overall bit rate : 1 175 kb/s
Movie name : [+18] Parched (2016) - 720p - UNCENSORED - WebHD-Rip - Hindi - x264 - AC3 - 5.1 - ESubs - Mafiaking - M2Tv - ExClusive
Encoded date : UTC 2016-08-19 21:57:37
Writing application : mkvmerge v7.0.0 ('Where We Going') 32bit built on Jun 9 2014 15:08:34
Writing library : libebml v1.3.0 + libmatroska v1.4.1

Video
ID : 1
Format : AVC
Format/Info : Advanced Video Codec
Format profile : [email protected]
Format settings, CABAC : Yes
Format settings, ReFrames : 3 frames
Codec ID : V_MPEG4/ISO/AVC
Duration : 1 h 56 min
Bit rate : 950 kb/s
Width : 1 280 pixels
Height : 544 pixels
Display aspect ratio : 2.35:1
Frame rate mode : Constant
Frame rate : 23.976 (24000/1001) FPS
Color space : YUV
Chroma subsampling : 4:2:0
Bit depth : 8 bits
Scan type : Progressive
Bits/(Pixel*Frame) : 0.057
Stream size : 793 MiB (81%)
Title : Mafiaking
Language : Hindi
Default : Yes
Forced : No

Audio
ID : 2
Format : AC-3
Format/Info : Audio Coding 3
Mode extension : CM (complete main)
Format settings, Endianness : Big
Codec ID : A_AC3
Duration : 1 h 56 min
Bit rate mode : Constant
Bit rate : 224 kb/s
Channel(s) : 6 channels
Channel positions : Front: L C R, Side: L R, LFE
Sampling rate : 48.0 kHz
Frame rate : 31.250 FPS (1536 spf)
Compression mode : Lossy
Stream size : 187 MiB (19%)
Title : Mafiaking
Language : Hindi
Default : Yes
Forced : No

 

[+18] Parched (2016) - 720p - UNCENSORED - WebHD-Rip - Hindi - x264 - AC3 - 5.1 - ESubs - Mafiaking - M2Tv - ExClusive [+18] Parched (2016) - 720p - UNCENSORED - WebHD-Rip - Hindi - x264 - AC3 - 5.1 - ESubs - Mafiaking - M2Tv - ExClusive [+18] Parched (2016) - 720p - UNCENSORED - WebHD-Rip - Hindi - x264 - AC3 - 5.1 - ESubs - Mafiaking - M2Tv - ExClusive

LETWATACH
*
*
VODLOCKER
*
*
*
*
*
GO4UP 
 
No links available
No downloads available

Genres

Related movies

Watch Dragon ball super