Remember Me
A password will be e-mailed to you.
Please enter your username or email address. You will receive a link to create a new password via email.
Cancel
PerfectHDMovies.me

13 Hours – The Secret Soldiers of Benghazi 2016 720p Blu-ray x264 Hindi-AAC 5.1 – DDR 1.8GB

13 Hours: The Secret Soldiers of Benghazi    

R 144 min Dual AudioDual Audio Blu-Ray 720p

7.4
IMDB: 7.4/10 35,551 votes

, , ,

N/A

USA

Report error

13 Hours - The Secret Soldiers of Benghazi 2016 720p Blu-ray x264 Hindi-AAC 5.1 - DDR

13 Hours – The Secret Soldiers of Benghazi 2016 720p Blu-ray x264 Hindi-AAC 5.1 – DDR 1.8GB

13 Hours - The Secret Soldiers of Benghazi 2016 720p Blu-ray x264 Hindi-AAC 5.1 - DDR

- HollywooD MoviE -
**- 13 Hours - The Secret Soldiers of Benghazi -**
- (2016) -
** 720p Blu-Ray / x264 / AAC 5.1 **
Hindi Dubbed AAC 5.1 Audio

General
Source = BD50 @ DDR
Format : Matroska
File size : 1.81 GiB
Duration : 2h 24mn
Overall bit rate : 1 793 Kbps
Encoded date : UTC 2016-07-13 22:14:41

Video
Format : AVC
Format profile : [email protected]
Bit rate : 1 600 Kbps
Width : 1 280 pixels
Height : 532 pixels
Display aspect ratio : 2.40:1
Frame rate mode : Constant
Frame rate : 23.976 (24000/1001) fps
Color space : YUV
Chroma subsampling : 4:2:0
Bit depth : 8 bits
Scan type : Progressive
Bits/(Pixel*Frame) : 0.098
Stream size : 1.61 GiB (89%)
Transfer characteristics : BT.709

Audio #1
Format : AAC
Format/Info : Advanced Audio Codec
Format profile : LC
Codec ID : A_AAC
Duration : 2h 24mn
Bit rate : 192 Kbps
Channel(s) : 6 channels
Channel positions : Front: L C R, Side: L R, LFE
Sampling rate : 48.0 KHz
Frame rate : 46.875 fps (1024 spf)
Compression mode : Lossy
Delay relative to video : 3s 845ms
Stream size : 198 MiB (11%)
Language : Hindi
Default : Yes
Forced : No

Chapters: YES 
Sample : Included

A DDR Exclusive Encode...!


No links available
No downloads available

Genres

Related movies

Watch Dragon ball super