Remember Me
A password will be e-mailed to you.
Please enter your username or email address. You will receive a link to create a new password via email.
Cancel
PerfectHDMovies.me

13 Hours The Secret Soldiers of Benghazi CAM x264-VAiN – 1.57 GB

13 Hours: The Secret Soldiers of Benghazi    

R 144 min HollywoodHollywood Pre-Releases (Latest)

7.6
IMDB: 7.6/10 11,977 votes

, , ,

N/A

USA

Report error

 

13 Hours The Secret Soldiers of Benghazi CAM x264-VAiN


iMDB........: http://www.imdb.com/title/tt4172430/

PLOT........: As an American ambassador is killed during an attack at a U.S.

compound in Libya, a security team struggles to make sense out of the chaos.


T E C H N i C A L . i N F O . . .

Basic Information
Format                                   : Matroska
Format version                           : Version 4 / Version 2
File size                                : 1.57 GiB
Duration                                 : 2h 16mn
Overall bit rate mode                    : Variable
Overall bit rate                         : 1 646 Kbps
Encoded date                             : UTC 2016-04-11 20:22:37
Writing application                      : mkvmerge v8.3.0 ('Over the

Horizon') 64bit
Writing library                          : libebml v1.3.1 + libmatroska v1.4.2

Video
ID                                       : 1
Format                                   : AVC
Format/Info                              : Advanced Video Codec
Format profile                           : [email protected]
Format settings, CABAC                   : Yes
Format settings, ReFrames                : 3 frames
Codec ID                                 : V_MPEG4/ISO/AVC
Duration                                 : 2h 16mn
Bit rate mode                            : Variable
Bit rate                                 : 1 516 Kbps
Maximum bit rate                         : 40.0 Mbps
Width                                    : 720 pixels
Height                                   : 288 pixels
Display aspect ratio                     : 2.35:1
Frame rate mode                          : Constant
Frame rate                               : 29.970 (30000/1001) fps
Color space                              : YUV
Chroma subsampling                       : 4:2:0
Bit depth                                : 8 bits
Scan type                                : Progressive
Bits/(Pixel*Frame)                       : 0.244
Stream size                              : 1.44 GiB (92%)
Writing library                          : x264 core 148 r2638 7599210
Language                                 : English
Default                                  : Yes
Forced                                   : No
Color range                              : Full


Audio
ID                                       : 2
Format                                   : MPEG Audio
Format version                           : Version 1
Format profile                           : Layer 3
Mode                                     : Joint stereo
Mode extension                           : MS Stereo
Codec ID                                 : A_MPEG/L3
Codec ID/Hint                            : MP3
Duration                                 : 2h 16mn
Bit rate mode                            : Constant
Bit rate                                 : 128 Kbps
Channel(s)                               : 2 channels
Sampling rate                            : 48.0 KHz
Frame rate                               : 41.667 fps (1152 spf)
Compression mode                         : Lossy
Stream size                              : 125 MiB (8%)
Writing library                          : LAME3.99r
Encoding settings                        : -m j -V 4 -q 3 -lowpass 17 -b 128
Language                                 : English
Default                                  : Yes
Forced                                   : No


Click To Resize

Click To Resize

Click To Resize

Click To Resize

Click To Resize

Click To Resize

Click To Resize

Click To Resize

Sample 1


Sample 2


No links available
No downloads available

Genres

Related movies

Watch Dragon ball super