Remember Me
A password will be e-mailed to you.
Please enter your username or email address. You will receive a link to create a new password via email.
Cancel
PerfectHDMovies.me

10 Cloverfield Lane [2016] Blu-Ray 720p Dual Audio [Hindi 5.1 + Eng 5.1] x264 – Hon3y [Exclusive] 1.4Gb

10 Cloverfield Lane    

PG-13 104 min Dual AudioDual Audio Blu-Ray 720p

7.4
IMDB: 7.4/10 103,992 votes

, , ,

N/A

USA

Report error

10 Cloverfield Lane [2016] Blu-Ray 720p Dual Audio [Eng5.1+Hindi5.1] x264 - Hon3y [Exclusive]

10 Cloverfield Lane [2016] Blu-Ray 720p Dual Audio [Eng5.1+Hindi5.1] x264 – Hon3y [Exclusive] 1.4Gb

Encoded By [email protected] @ Hon3yHD

Format                                   : Matroska
Format version                           : Version 4 / Version 2
File size                                : 1.44 GiB
Duration                                 : 1h 43mn
Overall bit rate                         : 1 992 Kbps

Video
ID                                       : 1
Format                                   : AVC
Format/Info                              : Advanced Video Codec
Format profile                           : [email protected]
Format settings, CABAC                   : Yes
Format settings, ReFrames                : 12 frames
Codec ID                                 : V_MPEG4/ISO/AVC
Duration                                 : 1h 43mn
Bit rate                                 : 1 609 Kbps
Width                                    : 1 280 pixels
Height                                   : 544 pixels
Display aspect ratio                     : 2.35:1
Frame rate mode                          : Constant
Frame rate                               : 23.976 (24000/1001) fps
Color space                              : YUV
Chroma subsampling                       : 4:2:0
Bit depth                                : 8 bits
Scan type                                : Progressive
Bits/(Pixel*Frame)                       : 0.096
Stream size                              : 1.16 GiB (81%)
Title                                    : [email protected] @ Hon3yHD
Writing library                          : x264Language                                 : English
Default                                  : Yes
Forced                                   : No
Color range                              : Limited
Color primaries                          : Generic film
Transfer characteristics                 : BT.709
Matrix coefficients                      : BT.709


Special Thanks to [email protected]$3iD For Dolby Digital Hindi Audio

Audio #1
ID                                       : 2
Format                                   : AAC
Format/Info                              : Advanced Audio Codec
Format profile                           : LC
Codec ID                                 : A_AAC
Duration                                 : 1h 43mn
Bit rate                                 : 192 Kbps
Channel(s)                               : 6 channels
Channel positions                        : Front: L C R, Side: L R, LFE
Sampling rate                            : 48.0 KHz
Frame rate                               : 46.875 fps (1024 spf)
Compression mode                         : Lossy
Delay relative to video                  : 7s 745ms
Stream size                              : 142 MiB (10%)
Title                                    : [email protected] @ Hon3yHD
Language                                 : Hindi
Default                                  : Yes
Forced                                   : No

Audio #2
ID                                       : 3
Format                                   : AAC
Format/Info                              : Advanced Audio Codec
Format profile                           : LC
Codec ID                                 : A_AAC
Duration                                 : 1h 43mn
Bit rate                                 : 192 Kbps
Channel(s)                               : 6 channels
Channel positions                        : Front: L C R, Side: L R, LFE
Sampling rate                            : 48.0 KHz
Frame rate                               : 46.875 fps (1024 spf)
Compression mode                         : Lossy
Delay relative to video                  : 9ms
Stream size                              : 142 MiB (10%)
Title                                    : [email protected] @ Hon3yHD
Language                                 : English
Default                                  : No
Forced                                   : No

Menu
00:00:00.000                             : en:00:00:00.000
00:05:55.605                             : en:00:05:55.605
00:14:52.517                             : en:00:14:52.517
00:19:18.157                             : en:00:19:18.157
00:24:11.992                             : en:00:24:11.992
00:32:21.940                             : en:00:32:21.940
00:42:59.243                             : en:00:42:59.243
00:47:47.740                             : en:00:47:47.740
00:53:37.089                             : en:00:53:37.089
00:57:00.626                             : en:00:57:00.626
01:03:10.745                             : en:01:03:10.745
01:11:20.193                             : en:01:11:20.193
01:15:49.420                             : en:01:15:49.420
01:24:21.265                             : en:01:24:21.265
01:28:19.085                             : en:01:28:19.085
01:37:31.512                             : en:01:37:31.512
No links available
No downloads available

Genres

Related movies

Watch Dragon ball super